<?xml version="1.0" standalone="no"?>
<!DOCTYPE svg PUBLIC "-//W3C//DTD SVG 1.1//EN" "http://www.w3.org/Graphics/SVG/1.1/DTD/svg11.dtd" >
<svg xmlns="http://www.w3.org/2000/svg">
<metadata></metadata>
<defs>
<font id="alex_brushregular" horiz-adv-x="462" >
<font-face units-per-em="2048" ascent="1638" descent="-410" />
<missing-glyph horiz-adv-x="405" />
<glyph horiz-adv-x="2048" />
<glyph horiz-adv-x="2048" />
<glyph unicode="&#xd;" horiz-adv-x="681" />
<glyph unicode=" "  horiz-adv-x="405" />
<glyph unicode="&#x09;" horiz-adv-x="405" />
<glyph unicode="&#xa0;" horiz-adv-x="405" />
<glyph unicode="!" horiz-adv-x="530" d="M158 78q0 57 80 57q30 0 57 -19.5t27 -46t-26 -46t-56.5 -19.5t-56 22.5t-25.5 51.5zM276 279q25 141 191 390t225 249q25 0 54.5 -9.5t29.5 -25.5q0 -6 -8 -15q-86 -90 -253 -310t-188.5 -269t-41.5 -49q-14 0 -9 39z" />
<glyph unicode="&#x22;" horiz-adv-x="421" d="M35 680q8 10 21.5 24.5t25.5 28.5q43 47 43 79t-27.5 56.5t-27.5 36.5q0 61 59 62q31 0 58.5 -20.5t27.5 -49.5q0 -86 -66.5 -154.5t-97.5 -68.5q-16 0 -16 6zM244 679q0 5 44 55t44 80t-28 54.5t-28 36.5q0 61 62 62q31 0 57.5 -20.5t26.5 -49.5q0 -86 -65.5 -154.5 t-89 -68.5t-23.5 5z" />
<glyph unicode="#" horiz-adv-x="1619" d="M-20 485q0 35 104 41l340 2q51 139 129 357q-209 -2 -215 -2q-164 0 -176 45q-16 41 100 49q45 0 324 -4l94 266q33 90 51.5 90t18.5 -55q-4 -121 -33 -201l-37 -100q319 -4 391 -4q131 350 168 356q20 4 21 -53q-6 -113 -39 -199l-39 -102l340 8q72 0 71.5 -15.5 t-47.5 -31.5q-115 -45 -203 -45h-192l-135 -359l295 2q102 0 102 -22q0 -16 -45 -31q-111 -39 -203 -39l-184 -2l-72 -196q-55 -162 -106 -162q-25 0 -25 32.5t10 77.5q37 92 93 248l-404 -2l-71 -194q-55 -162 -105 -162q-27 0 -27 34.5t13 75.5q43 98 100 246l-215 -2 q-193 0 -192 53zM512 528h401q23 66 127 359l-393 -2z" />
<glyph unicode="$" horiz-adv-x="1099" d="M14.5 659.5q-0.5 32.5 20.5 69.5q37 63 94 64q12 0 12 -5q0 -8 -24 -22l-35 -25q-23 -23 -23 -63q0 -76 55.5 -134.5t127.5 -78.5q117 176 272 387q-137 37 -137 137q0 74 92 148q141 111 352 118q199 248 221.5 248t33.5 -11t11 -24.5t-16 -33.5q-68 -78 -153 -185 q170 -25 169 -133q0 -76 -79 -106q-47 -18 -79 -18.5t-32 16.5q0 8 29 10q106 6 106 80q0 96 -145 114q-109 -133 -246 -311q63 -8 190 -43q98 -39 98.5 -112.5t-67 -147.5t-139.5 -106q-152 -70 -344 -70q-33 0 -86 4q-174 -262 -174 -340q0 -35 22 -45q8 -6 -5 -20.5 t-34 -14.5q-31 0 -30.5 60.5t39.5 169.5q20 53 112 200q-158 39 -196 162q-12 29 -12.5 61.5zM313 453q21 -2 64 -2q133 0 257 50t183 148q23 39 23 66q0 45 -59.5 70.5t-190.5 50.5q-172 -229 -277 -383zM457 1012q0 -59 106 -92q94 125 225 294q-176 -16 -270 -100 q-61 -57 -61 -102z" />
<glyph unicode="%" horiz-adv-x="1435" d="M195 907q0 123 179 345.5t290 222.5q104 0 104 -111q0 -29 -10 -74q2 -4 20.5 -4t63.5 6q207 25 479 152q8 4 20.5 4t25.5 -13.5t13 -27.5t-18 -37q-276 -317 -633.5 -797.5t-423.5 -652.5q-12 -37 -12 -70.5t15.5 -42t6.5 -22.5q-14 -20 -43 -21q-35 0 -34.5 68 t48.5 201t391 605t564 724q-102 -49 -248.5 -92t-244.5 -47q2 -8 2 -19q0 -72 -138 -239q-162 -199 -276 -199h-33q-53 0 -84 55q-25 39 -24 86zM291 905q0 -78 49 -78q88 0 223 160t135 230q-33 18 -82 94q-70 0 -197.5 -164t-127.5 -242zM604 -27q0 123 179.5 345.5 t289.5 222.5q104 0 105 -111q0 -29 -11 -74q0 -2 18.5 -7t18.5 -15q0 -27 -47 -45q2 -8 2 -19q0 -72 -137 -239q-162 -199 -277 -199h-32q-53 0 -84 55q-25 39 -25 86zM700 -28.5q0 -77.5 50 -77.5q88 0 223 159.5t135 229.5q-33 18 -82 94q-70 0 -198 -164t-128 -241.5z " />
<glyph unicode="&#x26;" horiz-adv-x="1542" d="M27 367q0 199 303 378q141 86 276 129q-57 63 -57 166q0 53 24 88q68 96 205 154q162 72 328 72q219 0 215 -137q-4 -59 -50 -103.5t-101.5 -44.5t-55.5 29q0 20 27 20l35 -6q29 0 56.5 35t27.5 70q0 55 -64 79q-41 14 -78 15q-172 0 -286.5 -72t-167.5 -160 q-31 -51 -31 -106t24 -84q81 22 142 22q115 0 114 -47q0 -12 -8 -20q-27 -45 -116 -45t-160 53q-111 -33 -258 -139q-229 -170 -230 -334q0 -182 248 -203q49 303 295 455q80 51 172 72.5t126 28.5t115 20.5l93 15.5q190 33 244.5 74t54.5 78q0 10 -3 22t5 14t18 -6 q16 -23 16.5 -55.5t-40.5 -79.5q-61 -61 -170 -86q-41 -10 -109.5 -23.5t-99.5 -21.5q39 -37 39 -111q0 -152 -180 -297q-199 -160 -533 -159q-2 -16 -2 -51q0 -143 95.5 -226.5t240.5 -83.5q51 0 88 34t37 77q0 14 -8.5 32.5t15.5 18.5t24 -54t-47.5 -96t-108.5 -42 q-160 0 -266 88q-121 96 -121 252q0 35 2 53q-178 16 -270 90q-84 72 -84 158zM438 174q45 0 90 6q264 29 420 168q129 117 129 240q0 90 -78 90q-25 0 -100 -19q-395 -147 -461 -485zM682 864q51 -33 110.5 -33t59.5 27q0 18 -54.5 18.5t-115.5 -12.5z" />
<glyph unicode="'" horiz-adv-x="266" d="M150 559q0 8 55 79t55 101.5t-27.5 55t-27.5 36.5q0 61 59 62q31 0 58.5 -19.5t27.5 -48.5q0 -88 -77.5 -181t-110.5 -93q-12 0 -12 8z" />
<glyph unicode="(" horiz-adv-x="768" d="M-10 422q0 164 84 348q121 264 444 496q361 259 742 290q41 -6 40.5 -25.5t-51.5 -21.5q-358 -35 -663 -299q-223 -197 -351.5 -438.5t-128.5 -416.5t79 -268t227 -105q47 -4 47 -23q0 -29 -49 -29h-19q-164 16 -282.5 148.5t-118.5 343.5z" />
<glyph unicode=")" horiz-adv-x="1333" d="M18 -46.5q0 19.5 52 21.5q358 35 663 299q227 197 354 437.5t127 416.5q0 350 -307 375q-45 2 -45 23q0 29 47 28h19q164 -16 282.5 -148t118.5 -341q0 -164 -84 -350q-121 -264 -444 -496q-361 -260 -740 -291q-43 6 -43 25.5z" />
<glyph unicode="*" horiz-adv-x="720" d="M82 719q0 18 45 24l182 9q-45 68 -76 110q-37 43 -36.5 62.5t14.5 19.5t41 -24l104 -132l37 152q6 35 25 68q4 2 6 2q14 0 14 -51.5t-24 -178.5l118 82q49 35 56 35h8q16 -6 -7.5 -39t-133.5 -113h161q49 0 50 -14q0 -6 -20.5 -19.5t-58.5 -15.5t-55 -4q-53 -2 -90 -2 l95 -127q39 -51 38 -61q0 -51 -182 147l-51 -172q-12 -31 -27 -31q-18 0 -18 52l29 155l-107 -80q-47 -33 -66.5 -32.5t-19.5 14.5t25 39l135 98h-129q-82 0 -82 27z" />
<glyph unicode="+" horiz-adv-x="831" d="M39 481q0 20 17.5 34.5t42 14.5t89.5 2h191q72 213 100 363h2q23 0 23 -56.5t-31 -306.5h35h140t163 5q2 -4 2 -7q0 -29 -129 -53q-76 -10 -227 -35q-27 -100 -68 -202.5t-65 -102.5q-20 0 -31.5 22.5t-5.5 41.5l63 233q-311 0 -311 47z" />
<glyph unicode="," horiz-adv-x="397" d="M166 -160q0 4 44 54.5t44 81t-27.5 55t-27.5 37.5q0 61 59 61q31 0 58.5 -20.5t27.5 -49.5q0 -86 -65.5 -154.5t-89 -68.5t-23.5 4z" />
<glyph unicode="-" horiz-adv-x="608" d="M39 481q0 20 17.5 34.5t29.5 14.5t25 2h53h51l199 -2q119 0 170 7q2 -2 2 -7q0 -31 -162 -59q-88 -12 -165 -25.5t-98.5 -13.5t-71.5 9.5t-50 39.5z" />
<glyph unicode="." d="M180 70q0 59 78 59q31 0 58.5 -20.5t27.5 -46t-25.5 -45t-56.5 -19.5t-56.5 21.5t-25.5 50.5z" />
<glyph unicode="/" horiz-adv-x="1236" d="M55 -186.5q0 67.5 45 190.5q63 174 535 807q465 619 514 619q23 0 36 -13.5t13 -28t-18 -36.5q-276 -317 -634 -797.5t-423 -652.5q-12 -37 -12 -71t16 -41t6 -23q-14 -20 -43 -21q-35 0 -35 67.5z" />
<glyph unicode="0" horiz-adv-x="1179" d="M68 227.5q0 216.5 159 477.5q98 164 277.5 317.5t361.5 234.5q-8 8 -8 17q0 25 68 24q20 0 49 -2q59 20 158 21q153 0 153 -57q-4 -29 -53 -9.5t-79 19.5h-34q63 -20 117 -72q115 -109 115 -270.5t-90.5 -329.5t-241.5 -301q-354 -315 -705 -315q-41 0 -77 6 q-170 23 -170 239.5zM162 197q0 -156 100 -164q20 -2 41 -2q276 0 608 291.5t332 621.5q0 156 -65 209q-100 78 -189 94q-190 -59 -401 -260q-156 -152 -258 -309q-168 -260 -168 -481z" />
<glyph unicode="1" horiz-adv-x="714" d="M-2 11.5q0 27.5 18 33.5q55 25 207 76q256 469 514 936q-113 -70 -286 -135q-31 -12 -31 20q0 16 18 27q139 51 387 245l13 21q20 39 85.5 39t65.5 -31q0 -6 -6 -16l-659 -1090q138 25 292 25q23 0 23 -23q0 -29 -31 -28q-137 0 -293 -50q-76 -27 -179 -67.5 t-110.5 -40.5t-17.5 15.5t-10 43z" />
<glyph unicode="2" horiz-adv-x="1327" d="M0 27q0 45 53 86q78 51 228 51q35 0 69 -2q479 289 622.5 401.5t213.5 198.5q96 115 117 246q4 25 4 34q0 111 -137.5 111t-331 -88t-303.5 -186q-8 -8 -19 -9q-20 0 -20 25q0 14 12 25q141 121 375.5 225t413 104t178.5 -145q0 -160 -191 -352q-82 -86 -291 -251 t-590 -364q88 -10 313.5 -85t364.5 -75q78 0 150 31q90 37 90 109q0 82 -125 127q-16 6 -16 16q0 27 34 16q170 -49 170 -163q0 -96 -104 -154.5t-220 -58.5t-288 59l-285 102q-96 29 -153 29q-74 -35 -242 -94q-25 -6 -43 -6q-49 0 -49 37z" />
<glyph unicode="3" horiz-adv-x="1470" d="M66 225q0 63 45 145.5t185 141.5t234 59q25 0 25 -16q0 -20 -29 -20q-68 0 -175 -67t-128 -138q-10 -41 -10 -70q0 -178 244 -221q63 -12 129 -12q178 0 364 86q287 133 387 383q14 35 15 69q0 82 -86 119t-205 37t-199 -31q-18 -8 -39 -8q-37 0 -37 35q0 25 17.5 43 t42.5 18q176 0 330 60q197 78 221 219q2 10 2 26q0 88 -109.5 88t-249 -52t-235.5 -113q-10 -6 -14 -7q-14 0 -15 27q0 61 39 70q47 14 150 110q12 12 22 8t10 -15t-9 -19.5t-19 -20.5q219 94 366 94q193 0 193 -172v-14q-10 -178 -367 -289q309 -33 309 -217q0 -31 -8 -57 q-61 -242 -362 -393q-264 -131 -578 -131q-201 0 -328.5 63t-127.5 182z" />
<glyph unicode="4" horiz-adv-x="1163" d="M27 387q0 53 45 68q31 12 114 28q111 59 337.5 221t287.5 203q393 248 467 359l18 28q10 14 35 15q70 0 70 -39q0 -2 -365 -527q-119 -175 -205 -325q143 -49 221 -49t126 34q59 49 59 119q0 23 -6 48.5t14.5 25.5t30.5 -21q39 -70 39 -124q0 -139 -250 -140 q-106 0 -266 49q-78 -145 -99 -315q-2 -25 -2 -68t25 -88q4 -12 4 -18q0 -37 -33 -37q-23 0 -32 12q-29 61 -29 148q0 156 92 387q-158 45 -275.5 45t-365.5 -102q-25 -8 -41 12t-16 51zM332 504q84 10 141 10q109 0 281 -65q90 197 338 550l47 70q-129 -80 -415 -284.5 t-392 -280.5z" />
<glyph unicode="5" horiz-adv-x="1355" d="M-68 191.5q0 101.5 134 228.5q20 20 36.5 20t16.5 -15t-21 -36q-74 -70 -73.5 -149.5t94.5 -137t221 -57.5q244 0 499 177t302 407q4 29 4 41q0 102 -127 155q-88 31 -184 31q-141 0 -265 -59l-215 -105q-4 -2 -12 -2q-18 0 -18 27.5t26 40.5l242 305q18 23 75.5 22.5 t57.5 -12.5q0 -4 -4 -8l-238 -258q262 104 375 104q438 0 438 -217q0 -35 -12 -73q-84 -264 -371 -445q-306 -192 -630 -192q-147 0 -249 53t-102 154.5zM610 1149q-4 20 0 54t19 44q47 35 92 40t132 5t277.5 -53t257 -53t127 29.5t60.5 78.5q0 31 24.5 31t24.5 -53 q0 -72 -92 -111q-61 -27 -149.5 -26.5t-260.5 27t-293.5 26.5t-197.5 -58q-16 -12 -21 19z" />
<glyph unicode="6" horiz-adv-x="1253" d="M102 207q0 176 169 389t427 352q317 172 519 240q-33 8 -40.5 11t-5.5 11q4 8 24 15.5t32 5.5l188 10q45 0 78 -20.5t33 -46t-23 -29.5q-315 -61 -743 -271q-197 -94 -373 -276q-213 -217 -213 -397q0 -186 256 -187q141 0 361 66q100 31 202.5 111.5t102.5 170.5 q0 72 -95 72q-145 0 -308 -93t-189 -243q-6 -39 -35 -39q-25 0 -18 35q33 188 208 299q180 113 369 113t189 -139q0 -109 -127 -211q-102 -78 -228 -117q-256 -78 -428 -78t-252 68.5t-80 177.5z" />
<glyph unicode="7" horiz-adv-x="1011" d="M221 1001q0 18 8 46l37 73q20 43 21 74q0 63 20 59q16 -12 17 -63q143 129 385 129q104 0 273 -40t257 -52l104 78q6 4 19.5 4t40.5 -28t27 -41t-11 -19q-492 -356 -829 -691q-100 -100 -192.5 -248.5t-92.5 -252.5q0 -14 4 -35q2 -25 -24 -25q-33 0 -35 37q-2 10 -2 35 q0 217 275.5 528.5t660.5 614.5q-328 45 -469.5 45t-229.5 -37q-117 -51 -161 -186q-16 -41 -48 -41t-43.5 13t-11.5 23z" />
<glyph unicode="8" horiz-adv-x="1245" d="M2 147q0 123 125 256q233 254 551 418q-127 78 -127 150q0 23 8 41q45 123 197.5 200.5t286 77.5t204.5 -41q55 -33 55.5 -82t-36.5 -100l172 55q16 4 24 -4t8 -20q0 -39 -59 -54q-242 -53 -545 -194q123 -51 189 -92q150 -94 149.5 -221t-158 -260.5t-377.5 -223.5 t-393.5 -90t-230.5 68q-43 49 -43 116zM115 135q0 -133 166 -133q133 0 317 76q489 201 489 409q0 123 -176 213l-176 91q-180 -102 -373 -277q-247 -227 -247 -379zM680 1020q0 -86 127 -143q145 70 391 167q43 84 43 113t-39 43q-80 29 -164 29q-145 0 -251.5 -65.5 t-106.5 -143.5z" />
<glyph unicode="9" horiz-adv-x="901" d="M154 739q0 174 219 314q176 111 416.5 170t400.5 59h33q14 0 12 -19.5t-20.5 -45t-46 -23.5t-68.5 2q-254 0 -522 -119q-319 -141 -330 -313q-4 -68 65 -68q137 0 451 201q203 129 385 277q8 8 37 8q86 0 86 -43q0 -16 -19 -31q-106 -90 -225 -199q-696 -643 -696 -1095 q0 -80 30 -90q31 -12 11 -27q-8 -8 -21.5 -8h-21.5q-84 10 -84 125q0 217 210 541.5t474 582.5q-429 -297 -656 -297q-121 0 -120 98z" />
<glyph unicode=":" d="M180 70q0 59 78 59q31 0 58.5 -20.5t27.5 -46t-25.5 -45t-56.5 -19.5t-56.5 21.5t-25.5 50.5zM262 467q0 59 78 59q31 0 58.5 -20.5t27.5 -46t-25.5 -45t-56.5 -19.5t-56.5 21.5t-25.5 50.5z" />
<glyph unicode=";" d="M166 -160q0 4 44 54.5t44 81t-27.5 55t-27.5 37.5q0 61 59 61q31 0 58.5 -20.5t27.5 -49.5q0 -86 -65.5 -154.5t-89 -68.5t-23.5 4zM262 467q0 59 78 59q31 0 58.5 -20.5t27.5 -46t-25.5 -45t-56.5 -19.5t-56.5 21.5t-25.5 50.5z" />
<glyph unicode="&#x3c;" horiz-adv-x="651" d="M174 524q0 29 107 174l135 185q16 23 34.5 22.5t18.5 -12.5q0 -31 -203 -313q199 -254 199 -277.5t-21 -23.5l-16 8q-70 98 -248 225q-6 4 -6 12z" />
<glyph unicode="=" horiz-adv-x="831" d="M39 481q0 20 17.5 34.5t31.5 14.5h31l51 2h164h96l213 -2q117 0 168 7q2 -4 2 -9.5t-14 -15.5q-35 -20 -134.5 -36.5t-180.5 -30t-129 -13.5t-136 6q-180 12 -180 43zM106 727q0 23 17.5 36t32.5 13h28q111 4 215 4l269 -2q129 0 211 4q2 -2 2 -6q0 -29 -162 -57 l-227 -37q-14 -4 -61.5 -4t-186 9t-138.5 40z" />
<glyph unicode="&#x3e;" horiz-adv-x="651" d="M174 276q0 31 203 314q-201 256 -201 278.5t23 22.5l16 -8q74 -98 248 -226q6 -2 6 -12q0 -41 -244 -358q-16 -23 -33.5 -23t-17.5 12z" />
<glyph unicode="?" horiz-adv-x="821" d="M168 700v11q12 137 134 212.5t251 75.5q340 0 340 -194q0 -125 -111 -211q-25 -18 -245 -148q-144 -82 -197 -182q-18 -33 -31.5 -33t-13.5 17.5t4 30.5q53 109 180 190q184 119 226 154q88 80 88 145.5t-75 106t-188.5 40.5t-207 -53t-105.5 -155q-4 -27 21.5 -50.5 t73.5 -23.5t108 61q6 6 12 6t6 -13t-10 -23q-63 -70 -145 -70q-51 0 -83 31.5t-32 74.5zM178 61q0 57 78 58q31 0 58.5 -19.5t27.5 -45t-26.5 -45t-57.5 -19.5t-55.5 21.5t-24.5 49.5z" />
<glyph unicode="@" horiz-adv-x="1724" d="M29 418.5q0 156.5 84 341.5q106 231 419 454q352 252 734 252q203 0 309 -76.5t106 -197.5q0 -72 -27.5 -127t-25.5 -57q14 -50 14 -109q0 -256 -262 -487q-401 -358 -903 -359q-55 0 -86 2q-162 10 -262 108.5t-100 255zM139 373q0 -260 273 -275q31 -2 61 -2 q403 0 764 322q250 225 281 426q-4 4 -9 4l-249 -277q-188 -182 -310 -182q-31 0 -53 8q-90 35 -90 135q0 16 4 54q-4 4 -8 4q-225 -215 -293 -215q-51 0 -96 33q-59 37 -60 108q0 150 210 353.5t382 203.5q78 0 94 -59l4 -13v-4q5 -8 9 -8l28 6q23 0 42.5 -18.5t20.5 -32.5 t-40 -74.5t-131 -187.5q-80 -131 -80 -189.5t49 -58.5q72 0 250 163t324 339v4q-14 111 -103 190q-141 125 -342 125q-135 4 -156 11q-2 6 3 8q96 33 184 33t196 -27q209 -49 297 -199q6 -8 9 0q16 49 16 103.5t-45 118.5q-86 123 -320.5 122.5t-501 -156t-440.5 -396 t-174 -500.5zM440 489q0 -70 52 -69q102 0 284 209q45 49 150 195l106 147l-2 2q-14 25 -49 24q-129 0 -335 -191.5t-206 -316.5z" />
<glyph unicode="A" horiz-adv-x="2088" d="M-2 86q0 176 111 373q147 262 403 447.5t459 185.5t203 -150q0 -100 -61.5 -223t-125.5 -156q-6 -2 -13 -2t-7 4l67 111q70 109 70 190.5t-36 132t-114 50.5q-160 0 -382 -178.5t-337.5 -438.5t-115.5 -405q0 -219 223 -220q213 0 578 275q162 121 526 457 q-72 -4 -133 -15q-56 -11 -87 -11q-40 0 -36 19q8 76 78 76q135 -16 227 -16q176 162 526 530q236 248 287 248q23 0 23 -35t-18.5 -108.5t-41.5 -89.5q-47 -33 -88 -89.5t-117 -211t-129 -250.5l199 4q74 0 74 -10q0 -27 -299 -48q-190 -373 -191 -507q0 -94 60 -95 q23 0 56.5 28t40.5 28t7 -11q-10 -37 -62.5 -61.5t-88 -24.5t-56.5 5q-49 18 -49 118q0 207 158 527l-246 -7q-274 -268 -551 -471q-414 -301 -647 -301q-14 0 -29 2q-315 27 -315 324zM1577 594h121q43 -2 106 -2q59 116 297 493z" />
<glyph unicode="B" horiz-adv-x="1677" d="M37 96.5q0 108.5 90 266t158 186.5q31 10 47 10q59 0 90 -98l61 -197q59 63 162 203l182 246q336 436 441 477q37 14 75.5 14t64.5 -16.5t26 -40.5q0 -37 -60 -43q-61 -35 -234 -204t-206 -214q-229 -319 -424 -491q125 -248 375 -248q152 0 301 95t223 234q33 59 33 133 t-58.5 140.5t-146.5 97.5q-41 6 -131 17.5t-90 37.5q0 10 8 19q25 29 63 29q23 0 44.5 -8.5t34 -12.5t28.5 -10q45 -4 78 -4q135 0 246 43q141 55 180 166q25 72 24 129q0 141 -137 211q-119 61 -325 61q-326 0 -584 -123q-131 -61 -249 -182t-118 -207q0 -59 31 -98 q12 -16 43 -41q10 -6 -12 -6q-127 29 -127 170t143 266q106 92 240 149q276 119 628 119q252 0 402 -74q174 -82 174 -247q0 -66 -27 -133q-43 -123 -223 -187q-135 -47 -291 -49q121 -6 204 -89t83 -206q0 -74 -33 -139q-70 -147 -266.5 -245.5t-409.5 -98.5 q-324 0 -440 221q-211 -176 -301 -176q-16 0 -29 6q-61 33 -61 141.5zM106 106q0 -55 27 -100q6 -10 21 -10q66 0 252 186l-7 8q-82 273 -131 273q-2 0 -10 -4q-152 -219 -152 -353z" />
<glyph unicode="C" horiz-adv-x="1486" d="M63 299q0 68 17 145q55 262 291 510q170 178 403.5 277.5t442.5 99.5q111 0 192 -26q223 -70 223 -281q0 -129 -76 -223q-188 -232 -448 -232q-123 0 -207 56.5t-84 142.5q0 109 141 217q25 18 37.5 18.5t12.5 -8.5q0 -20 -33 -32q-115 -92 -115 -187q0 -68 61.5 -114 t153.5 -46q201 0 379 193q92 100 92 231t-98 195q-82 57 -221 57q-201 0 -404 -100q-250 -121 -451.5 -376t-201.5 -490q0 -186 127 -287.5t315 -101.5q215 0 422 104q158 82 273 209q33 37 51 37q12 0 12 -21.5t-22 -44.5q-109 -115 -314 -221q-252 -133 -507 -133 t-380 168q-84 111 -84 264z" />
<glyph unicode="D" horiz-adv-x="1886" d="M31 51q0 98 83 295t158 197q39 0 67 -153.5t56 -223.5q139 147 404 491q332 436 440 478q37 14 76 14t64.5 -16.5t25.5 -40.5q0 -35 -59 -41q-72 -39 -222 -189q-150 -145 -239 -272q-219 -305 -451 -498q115 -170 361 -170q27 0 79 4q569 53 807 494q97 177 97 349 q0 171 -125 308q-100 113 -218 139.5t-241 26.5q-315 0 -582 -145q-280 -153 -280 -343q0 -52 27.5 -85t37.5 -37h-12q-53 10 -94 53q-45 53 -45 113q0 205 257 352t603 147q160 0 328 -36.5t305 -176.5q157 -163 158 -367q0 -157 -91 -321q-156 -283 -465 -413 q-249 -104 -535 -104q-1 0 -1 -1q-285 0 -422 172q-180 -139 -264 -139q-45 0 -66.5 44t-21.5 95zM104 59q0 -63 25 -110q88 39 213 162q-59 98 -74.5 154.5t-21.5 148.5q-142 -203 -142 -355zM397 633q2 0 4 2q0 -4 -1 -4t-3 2z" />
<glyph unicode="E" horiz-adv-x="1415" d="M6 158q0 84 53 168q188 299 643 444q-68 77 -68 165q0 89 44 148q84 115 252 189q201 88 401 88q117 0 187.5 -38t70.5 -117t-58 -133t-121.5 -54t-63.5 31q0 18 26 18l41 -6q41 0 75 44t34 91q0 70 -80 102q-51 20 -96.5 20.5t-63.5 -1.5q-176 -10 -344 -123 q-197 -129 -197 -291q0 -59 41 -110q131 41 250 41q201 0 201 -76q0 -16 -12 -37q-49 -76 -179 -76q-84 0 -172 30t-133 62q-190 -55 -338.5 -169.5t-222.5 -260.5q-39 -78 -39 -151q0 -115 95.5 -186.5t279.5 -71.5q51 0 106 6q326 35 519 209q161 142 161 299 q0 127 -120 127q-145 0 -334 -156q-47 -39 -80 -98.5t-33 -116.5t57 -72q20 -8 21 -20q0 -20 -41 -17q-98 2 -98 129t129 238q176 152 372 152q147 0 187 -93q16 -43 16 -86q0 -190 -211 -358q-252 -205 -639 -205q-240 0 -379 89t-139 233zM817 760q88 -70 203 -70t115 64 q0 29 -102.5 29t-215.5 -23z" />
<glyph unicode="F" horiz-adv-x="1294" d="M-25 522q0 242 295 488q213 174 453 263t417 89t264 -51t87 -142.5t-80 -205.5q-47 -76 -330 -449q199 -6 210.5 -6h13.5q49 4 49 -14q0 -29 -80 -29l-174 4q-53 -4 -64 -10q-86 -106 -231.5 -308t-145.5 -241q0 -16 37 8q23 0 23 -6q0 -10 -45 -31l-58 -31 q-38 -33 -88 -33l-1 1q-50 0 -46 24q2 49 145.5 249t297.5 380q-147 -27 -226 -27q-8 2 -8 13.5t24.5 32t52.5 20.5t89 2h105q70 94 309 434q98 141 98 234q0 143 -213 143q-166 0 -390 -92t-413 -252q-133 -111 -211 -240t-78 -229q0 -162 193 -162q16 0 35 2 q125 10 236.5 142.5t111.5 222.5q0 8 -2 18q53 -10 53 -63q0 -88 -115 -207q-156 -162 -360 -162q-113 0 -176.5 59.5t-63.5 161.5z" />
<glyph unicode="G" horiz-adv-x="1695" d="M-31 293q0 313 379 637q190 164 460.5 272.5t474.5 108.5t312 -80q84 -66 84 -148q0 -117 -144 -224t-286 -107q-190 0 -190 219q0 84 35 84q28 -1 28 -58l-4 -65q0 -133 144 -133q119 0 239.5 82t120.5 165.5t-98 141.5q-66 39 -205 39q-207 0 -462 -98.5t-478 -315.5 q-293 -287 -293 -526q0 -141 107.5 -227.5t281.5 -86.5q242 0 561 183q266 150 400 317l59 88q-37 0 -305 -21.5t-307 -30.5t-64 -9q-68 0 -67 32q0 51 155.5 85t526 34t489.5 -28q18 -4 19 -11q0 -23 -142 -32q-176 -14 -180 -15q-209 -274 -541 -848q-18 -33 -35 -33v0 q-18 1 -18 27q0 72 115 277l143 268q-131 -113 -334 -211q-264 -125 -498.5 -125t-358.5 101.5t-124 271.5z" />
<glyph unicode="H" horiz-adv-x="1947" d="M39 655q0 53 12 109q61 276 355 483t661 207q141 0 242.5 -60.5t101.5 -169t-76 -229.5l-370 -569q66 -2 234.5 -19.5t253.5 -17.5t114 2l78 129q199 334 459.5 624t455.5 359q6 2 12 2q14 0 15 -16q0 -6 -7 -10q-131 -74 -375.5 -357.5t-422.5 -582.5l-80 -136 q94 12 135 48q8 6 14.5 -7.5t-2.5 -19.5q-61 -47 -174 -68q-143 -266 -143 -374q0 -70 59 -70q41 0 95.5 27.5t73 47t22.5 19.5t2 -13t-8 -22q-35 -33 -104.5 -69.5t-112.5 -36.5t-64 14q-66 43 -66 148q0 107 109 313q-76 -6 -141 -6q-23 0 -482 14q-145 -229 -233 -418 q-27 -55 -64.5 -55t-37.5 31q0 57 235 444q-168 0 -223 -14q-92 -23 -137 -92q-16 -23 -27.5 -25t-11.5 9.5t8 19.5q78 104 153.5 143t239.5 39h49q125 190 351 565q84 158 83 256q0 158 -192 160h-23q-262 0 -477 -131t-340 -325.5t-125 -350.5q0 -190 179 -190 q141 0 241.5 125t100.5 237q0 63 -33 105q-4 4 -4 10q0 14 16 14q8 0 12 -6q41 -53 41 -127q0 -125 -102 -255t-215 -144q-35 -6 -68 -6q-131 0 -202 84q-70 76 -70 204z" />
<glyph unicode="I" horiz-adv-x="1179" d="M43 236q0 311 166 501q139 164 319 164q47 0 97 -16q121 -47 121 -199q0 -154 -126 -320q-124 -166 -255 -165q-147 0 -148 159q0 45 19.5 94.5t44.5 49.5q18 0 18 -19q0 -10 -18.5 -51t-18.5 -72.5t34 -59.5t71 -28q121 0 224 148.5t103 290.5q0 109 -78 143 q-27 10 -55 10q-145 0 -291 -200q-141 -203 -141 -445q0 -133 57 -217q59 -86 164 -86q270 0 705 735q-225 68 -226 267q0 264 269 421q170 98 329 99q125 0 226 -41q141 -55 141 -168q0 -25 -11 -47.5t-24 -22.5q-27 27 -63 27q-174 0 -477 -518q16 -2 34 -2q70 0 139.5 41 t69.5 102l-14 55q0 16 16 17q6 0 17 -6q47 -35 47 -92.5t-74 -112t-186 -54.5q-35 0 -70 7q-141 -260 -344 -480q-269 -286 -490 -286h-2q-319 0 -319 377zM938 880.5q0 -147.5 152 -175.5q113 184 291 367t296 183q31 0 54 -14q-2 57 -80 100q-70 41 -174.5 41t-240.5 -60 t-217 -177t-81 -264.5z" />
<glyph unicode="J" horiz-adv-x="1683" d="M80 44q0 118 45 202q109 209 313 325q152 88 281 88q139 0 218 -67.5t79 -169.5q0 -111 -82 -201q-51 -57 -82 -57q-8 0 -8 7t6 19q74 109 74 202t-52 153q-59 63 -160.5 63t-226.5 -82q-154 -100 -252 -301q-51 -100 -51 -207.5t80 -174t215 -66.5q520 0 1088 913 q340 545 348 668q-123 6 -129 6q-96 0 -247 -53.5t-196 -130.5q-18 -31 -18 -68t39 -82t39 -53q0 -16 -42 -16t-84 41.5t-42 102t37 109.5q78 106 260 152q131 33 262 33h16q18 0 101 -6q-4 27 21.5 50t58.5 23q59 0 59 -83v-5q221 -39 233 -118q2 -18 3 -31q0 -41 -24 -41 t-15 49q-51 76 -203 106q-37 -166 -385 -720q-231 -365 -539 -611q-351 -278 -661 -278h-2q-190 0 -282.5 96t-92.5 214z" />
<glyph unicode="K" horiz-adv-x="1916" d="M45 180q0 84 33 156q104 231 315 319q117 51 233 51q1 0 1 1q114 0 153 -76q14 -27 14.5 -56.5t-8 -38t-22.5 14.5q-49 90 -105 100q-37 4 -53 4q-160 0 -299 -133q-180 -174 -180 -377q0 -221 250 -249h16q90 0 232 79q229 131 489 451q-47 43 -47 127t62.5 158.5 t170.5 74.5q31 0 58 -6q102 172 198.5 372t96.5 230q0 4 -12.5 4t-142.5 -64.5t-185.5 -101t-135 -115.5t-79.5 -128q0 -23 31.5 -45.5t115.5 -21.5q10 -4 10 -11.5t-56 -17t-89 -9.5q-74 0 -74 62q0 72 88 172t193 158q305 163 387 163q43 0 43 -30q0 -125 -344 -715 q14 -55 45 -129l610 465q350 266 473 342q274 164 539 164q76 0 139 -25q39 -14 39 -53t-20 -39q-12 0 -25.5 16.5t-78 16.5t-210.5 -33q-229 -51 -520 -229q-182 -113 -487 -346.5t-441 -321.5q104 -219 269 -408q251 -292 451 -292h1q98 0 99 75q0 14 -3.5 28.5t7 35 t24.5 20.5q27 0 35 -63q2 -10 2 -21q0 -66 -66.5 -107.5t-157.5 -41.5t-153 28q-162 80 -326.5 281t-252.5 422q-113 -66 -187 -72q-137 -178 -338 -346q-109 -92 -235.5 -148.5t-243.5 -56.5q-166 0 -256 83t-90 253zM1157 581q0 -42 23 -71q100 143 120 176q-25 10 -54 10 t-59 -36.5t-30 -78.5zM1270 475q20 0 36.5 3t71.5 32q-16 41 -26 82q-41 -59 -82 -117z" />
<glyph unicode="L" horiz-adv-x="1347" d="M6 73.5q0 114.5 95.5 282.5t150.5 179q37 0 84 -84l129 -250q109 143 227 313q-168 76 -168 219q0 119 97 193q53 39 113.5 39t90.5 -64q6 -12 1 -15t-7 -1q-41 41 -88 41h-4q-59 0 -103 -63.5t-44 -117.5v-12q0 -106 147 -182q25 35 79 116t85 126q408 598 678 598 q190 -1 190 -179q0 -162 -157 -381q-123 -172 -327 -276t-376 -104q-63 0 -106 14q-86 -111 -277 -346q72 -102 259.5 -192.5t322.5 -90.5t200 37q90 47 91 135q0 23 -4.5 43.5t13 20.5t31 -30t13.5 -52q0 -72 -76 -135q-96 -78 -262 -78t-344 77.5t-293 211.5 q-164 -164 -311 -164q-45 0 -78 16q-72 41 -72 155.5zM86 77q0 -120 74 -120q53 0 128 55t126 121q-49 68 -102.5 173.5t-71 126t-23.5 20.5h-8q-37 -6 -80 -131t-43 -245zM825 510q27 -6 60 -6q143 0 327.5 98t290.5 248q186 260 187 395q0 82 -72 105q-18 6 -41 6 q-102 0 -254 -172q-104 -121 -244.5 -325t-253.5 -349z" />
<glyph unicode="M" horiz-adv-x="2326" d="M33 475q0 324 422 662q109 86 286 141t338.5 55t220 -56t58.5 -151q0 -143 -117 -387q-37 -76 -166 -276l158 201q115 150 397 426q61 59 136 99t128 40q74 0 74 -78q0 -68 -64.5 -204t-130 -258t-80 -159.5t-20.5 -60.5t-8 -25q6 10 135 157t381 366l328 270 q39 33 69.5 33t50 -51.5t19.5 -83t-98 -131.5q-256 -262 -434.5 -573.5t-178.5 -444.5q0 -35 12.5 -48.5t39 -8.5t111.5 42t112 43q10 -4 10 -10q0 -31 -107.5 -86t-162 -55t-66.5 18q-37 53 -37 129q0 176 189 506q121 207 372 557q-197 -160 -532.5 -489.5t-439.5 -515.5 q-53 -96 -129 -97q-35 0 -35 25q0 8 42 73.5t185 307.5q352 612 352 737q0 33 -22 33q-33 0 -96 -55q-227 -190 -483.5 -497.5t-385.5 -510.5q-49 -76 -49 -98.5t19 -32.5q0 -2 -37 -31q-33 -16 -74 -16t-59.5 9t-12.5 30q29 92 215.5 369.5t249.5 392.5q137 248 137 395 q0 61 -20 104q-41 84 -195 84q-240 0 -495 -207q-205 -166 -313.5 -351t-108.5 -331q0 -209 184 -213h17q236 0 364 170q49 68 49 115t-20 59q-2 2 -2 8.5t12 6.5q53 0 53 -70q0 -43 -42 -116.5t-148.5 -139t-247.5 -65.5t-225 88t-84 231z" />
<glyph unicode="N" horiz-adv-x="1894" d="M4 391q0 319 438 672q111 88 288 147.5t321.5 59.5t204 -54.5t59.5 -150.5q0 -233 -283 -662q63 80 207 203q510 428 877 563q18 8 41 9q78 0 98 -88q1 -3 1 -6q0 -38 -99 -140q-256 -262 -434.5 -573.5t-178.5 -446.5q0 -33 12.5 -46t39 -8t111.5 42t112 42q10 -4 10 -9 q0 -31 -107.5 -86.5t-161 -55.5t-67.5 19q-37 51 -37 129q0 176 189 506q121 207 372 557q-272 -25 -704 -430q-345 -326 -490 -559q-49 -76 -49 -99.5t19 -31.5q0 -4 -34 -26t-93.5 -22t-59.5 31q0 53 202 353t265 415q139 250 139 395q0 57 -22 107q-35 74 -168 74 q-244 0 -518 -224q-209 -172 -322 -356q-102 -174 -102 -311q0 -197 182 -201h17q242 0 366 170q49 68 49 115t-22 59q-2 2 -2 8t12 6q53 0 53 -69q0 -43 -41 -117t-148.5 -139.5t-244.5 -65.5t-217 80t-80 215z" />
<glyph unicode="O" horiz-adv-x="1605" d="M49 245.5q0 157.5 84 344.5q106 236 416 459q356 254 737 254q205 0 311.5 -80t106.5 -199q0 -74 -57 -182q16 -56 16 -113q0 -256 -262 -489q-403 -360 -903 -361q-55 0 -86 2q-164 8 -263.5 107.5t-99.5 257zM160 207q0 -270 272 -285q29 -2 57 -2q403 0 768 326 q262 233 283 444q-106 -117 -369 -278l-16 -4q-2 0 -2 2q0 8 55 55l115 94q147 129 215 211q-14 115 -103 191.5t-204 111.5q-57 14 -177 18.5t-120 8.5t4 8q94 31 181 31.5t200 -27.5q215 -51 301 -209q20 49 20 109.5t-45 124.5q-88 123 -311 123q-309 0 -583.5 -191.5 t-428.5 -482.5q-113 -211 -112 -379z" />
<glyph unicode="P" horiz-adv-x="2164" d="M88 70q0 178 143 336q158 174 398 174q98 0 165.5 -45.5t67.5 -137.5q0 -61 -69.5 -147t-85.5 -86q-4 0 -4.5 8t6.5 16q66 95 66 176q0 82 -51 126q-50 44 -124 45q-172 0 -304 -157t-132 -317q0 -102 64.5 -165.5t199.5 -63.5q252 0 432 170q104 98 211 287l178 321 q131 211 305 627h-36q-276 0 -555 -60.5t-422 -172.5q-62 -47 -62 -93q0 -45 48 -73t114 -27.5t163 26t146 68.5q20 16 29 17q16 0 6 -17q-74 -86 -223 -129q-90 -27 -179 -27q-1 1 -3 1q-90 0 -147.5 39.5t-57.5 108.5t74 138q139 135 497 201q254 45 584 45h55 q45 39 82 39t37 -29q0 -6 -2 -14q317 -23 514 -107q233 -98 233 -256q0 -104 -104 -229t-316 -202.5t-412 -77.5t-317 51q-258 -379 -335 -457q-221 -221 -529 -221q-174 0 -261 81t-87 210zM1323 492q20 -10 70 -23q82 -14 127 -14q156 0 358.5 64.5t338.5 188.5t136 228 q0 129 -209 211q-182 72 -456 86l-66 -205q-78 -193 -299 -536z" />
<glyph unicode="Q" horiz-adv-x="1632" d="M49 256q0 147 84 334q106 236 416 459q356 254 737 254q205 0 311.5 -80t106.5 -199q0 -74 -57 -182q16 -55 16 -113q0 -256 -262 -489q-233 -209 -494 -295q416 -299 561 -299q33 0 59.5 17.5t26.5 41t-14 43.5q-6 14 -6 23q0 29 36 -10.5t36 -82.5t-41 -71.5 t-107 -28.5q-213 0 -678 330q-127 -29 -284.5 -29t-253.5 45q-29 -92 -43 -92q-23 0 -23 78q0 29 4 51q-131 100 -131 295zM205 35q23 55 55 100q51 74 133 74t166 -47q111 -59 283 -172q219 82 415 256q260 229 283 444q-106 -117 -369 -278l-16 -4q-2 0 -2 2q0 8 55 55 l115 94q147 129 215 211q-14 115 -103 191.5t-204 111.5q-57 14 -177 18.5t-120 8.5t4 8q94 31 181 31t200 -27q215 -51 301 -209q20 49 20 109.5t-45 124.5q-88 123 -311 123q-309 0 -583.5 -191.5t-428.5 -482.5q-112 -209 -112 -376q0 -109 45 -175zM258 -20 q70 -55 174 -58h41q119 0 244 29q-236 143 -322 143t-116 -65z" />
<glyph unicode="R" horiz-adv-x="1540" d="M-86 -20q0 66 41 144.5t100.5 138t104.5 59.5q8 0 8 -5q0 -10 -51 -51t-98.5 -115.5t-47.5 -136.5q0 -108 143 -108h3q272 0 749 639q27 35 45 49l-32 12q-27 -10 -43 -10q-43 0 -43 35q0 47 63 61q8 2 14 2q37 0 86 -37q180 201 185 205q150 154 202 154t52 -45 q0 -20 -9.5 -39t-21.5 -19q-12 -4 -12 13q0 8 12 24q2 29 -18 29q-66 0 -318 -348q61 -4 102 -4q475 0 594 245q25 53 25 99q0 90 -82 155q-131 106 -426 106q-1 0 -2 1q-294 0 -600 -150q-373 -182 -373 -428q0 -80 100.5 -80t213 74t151.5 146q14 27 27.5 26.5t7.5 -16.5 q-39 -115 -173 -196t-279.5 -81t-145.5 93v14q31 268 329 455.5t717 187.5q391 0 555 -135q98 -82 99 -193q0 -47 -23 -102q-63 -150 -260 -222.5t-414 -72.5q-102 0 -190 16q29 -90 121 -407q29 -92 90 -187q83 -120 155 -121q1 0 1 1q86 0 143 174q10 41 21.5 41 t16.5 -23.5t5 -32.5q0 -51 -57 -131q-76 -113 -165 -113h-1q-90 0 -166 90.5t-148.5 329t-72.5 304.5q0 10 2 16q-246 -326 -353 -430q-238 -231 -485 -232q-174 0 -174 132z" />
<glyph unicode="S" horiz-adv-x="1531" d="M-35 278.5q0 67.5 27 112.5q61 109 155 109q72 0 84 -121q29 -233 39 -266q31 -100 105 -170q86 -18 186 -19q221 0 434 88t308 250q39 63 38 113q0 96 -170 149l-360 82q-111 27 -177.5 88.5t-66.5 141.5q0 123 154 245q117 94 286 146.5t331.5 52.5t269.5 -47 q137 -63 137 -185t-125 -171q-76 -31 -130 -31t-54 22q0 14 60 16t87 15q78 41 78 121q0 41 -23 86q-66 117 -317 117q-145 0 -290.5 -44t-244 -135.5t-98.5 -169.5q0 -119 236 -174l241 -45q145 -27 217 -73q94 -57 95 -164q0 -43 -15 -92q-66 -221 -338 -338 q-227 -100 -536 -101q-88 0 -154 9q66 -37 172 -64q8 -2 8 -8q0 -18 -43 -19q-84 0 -209 101q-170 27 -253 94q-53 43 -98.5 127t-45.5 151.5zM41 322q0 -158 111 -271q55 -57 149 -88q-119 131 -151 359q-18 129 -35 129t-31 -9.5t-28.5 -40t-14.5 -79.5z" />
<glyph unicode="T" horiz-adv-x="1353" d="M37 860q0 227 201 404q224 198 577 198h4q164 0 352 -47q43 -10 367 -158.5t465 -148.5q94 0 141 53q25 27 25 57.5t-27 55.5q-14 20 -14 26.5t11 6.5t39 -36t28 -84t-64.5 -92t-163.5 -44q-154 0 -477 148.5t-406 164.5t-190 16q-424 0 -667 -274q-29 -31 -68 -124 t-39 -179q0 -119 84 -185q106 156 251.5 248t295.5 92q184 0 184 -143q0 -172 -201.5 -373.5t-373.5 -201.5q-111 0 -111 94q0 33 17.5 57.5t41.5 18.5l-4 -48q0 -30 89 -30h6q139 0 293.5 143t187.5 281q8 31 8 55q0 92 -117.5 92t-243.5 -90t-237 -238q8 -4 64 -16l122 -4 q90 -4 91 -20q0 -29 -86 -29h-13q-125 0 -205 31q-158 -242 -157 -445q0 -262 202 -262q229 0 478 320l401 598q225 328 391 335l78 -18q37 -20 37 -61t-21 -41l-65 10q-141 0 -363 -305l-407 -570q-262 -305 -502 -305q-164 0 -226.5 88t-62.5 256q0 221 131 438 q-152 96 -151 285z" />
<glyph unicode="U" horiz-adv-x="1640" d="M29 381q0 322 606 756q123 88 291 152.5t305 64.5q70 0 134.5 -27t64.5 -89t-73 -178t-227.5 -326t-262 -392t-107.5 -254q0 -35 28 -35q55 0 207 115q360 274 848 891q78 98 125 98q18 0 19 -18q0 -8 -7 -21q2 -6 2 -12q0 -43 -49 -117l-241 -342q-147 -213 -260 -403 q-106 -178 -106 -219q0 -3 1 -5l37 13q102 57 178 133q27 20 33 20l4 -4q0 -18 -55 -78q-142 -125 -205 -125q-62 -1 -62 39q0 38 110 241.5t351 559.5q-41 -49 -129 -145q-504 -516 -604 -596q-149 -117 -278 -117q-88 0 -89 62q0 106 271.5 488t329.5 470q124 191 124 261 q0 36 -26 44q-49 20 -115 21q-225 0 -575 -240q-229 -160 -380 -374t-151 -353q0 -100 82 -115q33 -6 66 -6q104 0 215 68q55 33 139 108l37 13q-39 -74 -163 -150t-255 -76q-31 0 -72 8.5t-78.5 58.5t-37.5 132z" />
<glyph unicode="V" horiz-adv-x="1413" d="M-39 592q0 158 86 309q119 207 341 328t433 121q154 0 252 -68q111 -76 111 -225q0 -190 -184.5 -597t-184.5 -460q0 -16 10 -10q53 35 488.5 556t605.5 644q152 113 253 169t208 56q29 0 43 -2q55 -4 55 -57q0 -27 -18 -27q-2 0 -29 9.5t-45 9.5q-287 0 -772 -519 q-182 -195 -443.5 -524.5t-308.5 -355.5q-166 -94 -186 -94q-6 0 -6 20q0 68 114 344q47 106 138 320l94 276q49 139 49 203q0 141 -82 215t-235.5 74t-329.5 -109q-190 -123 -284.5 -303t-94.5 -305t51 -197q84 -117 223 -117q106 0 188.5 71t82.5 179q0 23 -5 41.5 t15 18.5q29 0 29 -68q0 -102 -101.5 -191t-232.5 -89q-84 0 -162 41q-166 90 -166 313z" />
<glyph unicode="W" horiz-adv-x="2324" d="M31 453q0 127 141 305q250 315 643 469q203 78 334 78q162 0 162 -107q0 -221 -557 -960q-186 -248 -189 -248q6 0 214 231.5t395 394.5q72 63 247 234q92 86 199 156q27 16 77 16t68 -29q-188 -233 -328.5 -523t-140.5 -415q0 -137 138 -137q184 0 444 266 q236 238 359.5 484.5t123.5 375.5q0 20 -4 41q-45 0 -92 48v-3q-31 25 -31 50.5t20.5 42t53.5 16.5t46 -25.5t33.5 -46t18.5 -28.5q12 -19 38 -19h1q25 0 57 24t52 24.5t20 -11.5q0 -23 -39 -43q-20 -16 -49 -18h-65q25 -84 24 -121q0 -164 -156.5 -426t-402.5 -465 q-248 -209 -449.5 -209t-201.5 197q0 156 131 444l147 322l-200 -156q-94 -78 -191.5 -171t-339.5 -384l-237 -291q-56 -65 -102 -65h-1q-35 0 -35 44q0 45 37 117l396 570q358 526 358 667q0 78 -143 78q-174 0 -486 -213q-168 -115 -295 -288t-127 -286.5t152 -113.5 q141 0 291 131q53 45 61 45t6 -14q-23 -78 -167 -148.5t-254 -70.5q-29 0 -39 2h-2q-164 35 -164 162zM2486 1096h2h-2z" />
<glyph unicode="X" horiz-adv-x="1310" d="M-342 43q0 174 117 367q42 71 68 71h1q8 0 8.5 -13t-14.5 -34q-112 -178 -112 -331q0 -87 36 -146q47 -66 125 -66q164 0 543 273q276 199 584 477l33 29q47 205 47 364.5t-74 208.5q-45 31 -112.5 31t-131.5 -21q-233 -72 -373.5 -261t-140.5 -347t119 -158q66 0 162 60 q25 18 24 20q6 -6 -14 -26q-82 -82 -215 -82q-80 0 -127 40t-47 111q0 12 2 27q25 272 263.5 466.5t479.5 194.5q66 0 115 -14q164 -53 164 -301q0 -84 -23 -203q213 188 449.5 368.5t316.5 203t107.5 22.5t38.5 -4q39 -14 39 -33.5t-52 -17.5h-4q-135 0 -495 -291 q-233 -188 -422 -377q-16 -43 -43 -141q-88 -319 -88 -434q0 -59 35 -60q84 0 294 209q35 35 35 13q0 -61 -147 -170q-184 -137 -260 -138q-68 0 -68 92.5t94 442.5l23 90q-453 -397 -793 -582q-238 -129 -375 -129q-16 0 -32 2q-160 23 -160 197z" />
<glyph unicode="Y" horiz-adv-x="1806" d="M29 561q0 279 407 569q119 86 313.5 156t314.5 70t182.5 -38t62.5 -121t-115 -258t-363 -476q-51 -59 -94 -154.5t-43 -152t44 -56.5t132 64q250 178 499 432t366 426q84 121 178 121q33 0 33 -21q0 -4 -4 -16q-258 -451 -703 -1196q-131 -215 -279.5 -322.5 t-271.5 -107.5q-78 0 -152.5 55t-74.5 123q0 43 43 43q10 0 31 -4q25 -86 40 -117q35 -55 119 -55q252 0 619 688l368 657q-395 -422 -560 -586.5t-226 -201.5q-123 -74 -203 -74q-117 0 -117 137q0 164 140 338q10 12 87 105.5t180 222.5t172 249t69 168t-29 62 q-59 31 -135 31q-217 0 -600 -262q-160 -109 -254 -252t-94 -264t116 -152q37 -10 72 -10q104 0 231 90q150 100 168 107q-20 -76 -161 -166q-156 -96 -291 -97q-18 0 -68.5 7.5t-99.5 75t-49 163.5z" />
<glyph unicode="Z" horiz-adv-x="1513" d="M-166 10q0 31 33 63.5t57 32.5q4 0 8 -4q10 -16 88 -28q518 541 1485 1071l-61 12q-145 33 -374.5 33t-399.5 -62q-37 -8 -111 -45q-119 -59 -119 -141q0 -12 6 -29.5t-2 -27.5q-8 -12 -27.5 -12.5t-37 28.5t-17.5 61.5t11 67.5q39 131 252 193q107 31 355 31h8 q254 0 505 -46q31 -2 102 -18l113 61q16 9 72 9h2q53 0 53 -21q0 -8 -18 -14q-8 -6 -105 -60q92 -6 113.5 -6t39 10.5t12.5 31t3 20.5q12 0 29.5 -28t17.5 -51q0 -50 -67 -50q-10 0 -220 32q-346 -197 -793.5 -504t-723.5 -567q313 35 637 64q37 2 106 2q256 0 403.5 -49.5 t147.5 -130.5q0 -49 -59 -109q-78 -72 -107 -72q-10 0 -10 17.5t23.5 39t23.5 40.5q0 63 -190 116q-199 57 -373 57q-3 0 -5 1q-172 0 -400 -34q-230 -34 -363 -34h-14q-33 -29 -41 -29q-4 0 -4 7.5t12 27.5q-76 4 -76 43z" />
<glyph unicode="[" horiz-adv-x="1198" d="M47 39q0 244 265.5 751.5t465.5 645.5q53 35 224.5 34.5t171.5 -43.5q0 -8 -3 -26q-8 -2 -28 -2l-148 8q-90 0 -122.5 -20.5t-114.5 -116.5q-166 -197 -373 -579t-207 -568q0 -115 158 -115l153 10q59 0 60 -24q0 -29 -172 -29q-330 0 -330 74z" />
<glyph unicode="\" horiz-adv-x="1128" d="M61.5 1389q-0.5 14 13 27.5t36.5 13.5q49 0 514 -619q471 -633 534 -807q45 -123 45 -190.5t-35 -67.5q-29 0 -43 21q-8 16 7.5 23t15.5 41t-12 71q-66 172 -423.5 652t-633.5 798q-18 23 -18.5 37z" />
<glyph unicode="]" horiz-adv-x="1138" d="M47 8q0 8 2 27q8 2 29 2l147 -8q90 0 123 20.5t115 116.5q166 197 372.5 578.5t206.5 568.5q1 114 -157 114l-154 -10q-59 0 -59 25q0 29 172 28q330 0 330 -73q0 -246 -265.5 -752t-466.5 -645q-53 -35 -224 -35t-171 43z" />
<glyph unicode="^" horiz-adv-x="757" d="M131 693.5q0 21.5 125 121.5q127 106 154 109l12 -4q78 -86 256 -222l10 -20l-8 -14q-47 4 -157.5 75.5t-141.5 104.5q-205 -172 -227.5 -172t-22.5 21.5z" />
<glyph unicode="_" horiz-adv-x="1650" d="M16 -100.5q0 49.5 35 49.5h1516q51 0 57 -58l-14 -14q-698 0 -1559 -27q-35 0 -35 49.5z" />
<glyph unicode="`" horiz-adv-x="452" d="M76 797.5q0 25.5 20 25.5q25 0 250 -184q8 -6 8 -15.5t-12 -9.5t-120.5 65.5t-127 79t-18.5 39z" />
<glyph unicode="a" horiz-adv-x="843" d="M-18 133q0 150 208.5 357.5t382.5 207.5q68 0 91 -47q6 -16 10 -27.5t6 -11.5l29 6q23 0 43 -18t20 -28.5t-127 -198t-127 -260.5q0 -6 2 -13q10 -47 45 -47q106 0 389 353q6 8 14.5 8t8.5 -15.5t-19 -40.5q-262 -350 -399 -350q-18 0 -35 6q-90 35 -90 136q0 35 8 69 l-127 -123q-121 -106 -175 -106t-103 35q-55 41 -55 108zM68 109q0 -74 51 -74q119 0 323 260l217 299q-16 29 -53 29q-125 0 -331.5 -193.5t-206.5 -320.5z" />
<glyph unicode="b" horiz-adv-x="747" d="M230.5 637q240.5 346 367.5 346q27 0 48.5 -16.5t21.5 -38.5q0 2 -30 -31t-162 -176t-259 -315.5t-127 -266.5q0 -25 13.5 -53.5t43.5 -28.5q90 0 211 140q100 123 123 206q-14 44 -14 107q0 139 86 139q8 0 18 -2q35 -6 35 -53t-16 -119q-16 -53 -23 -80q6 -35 34 -89 t76 -54t107 65q12 14 23.5 14.5t12.5 -13.5v-1q0 -13 -15 -34q-63 -76 -133 -76q-100 0 -162 147q-63 -145 -180 -250.5t-232 -105.5q-108 0 -108 161q0 132 240.5 478z" />
<glyph unicode="c" horiz-adv-x="579" d="M-16 127q0 143 180 331.5t323 188.5q47 0 77 -25.5t30 -69.5t-26.5 -92t-80 -48t-53.5 32q0 23 27.5 69t27.5 49t-6 3q-57 -6 -156.5 -81.5t-136.5 -127.5l-79 -116q-20 -33 -29.5 -78t-9.5 -67.5t25.5 -51.5t72.5 -29q102 0 253.5 120t233.5 228q10 12 24.5 12.5 t14.5 -8t-10 -20.5q-113 -150 -269.5 -261.5t-260.5 -111.5q-23 0 -41 7q-131 37 -131 147z" />
<glyph unicode="d" horiz-adv-x="956" d="M-18 133q0 150 208.5 357.5t382.5 207.5q57 0 80 -30q9 -10 19 -47q228 372 319 372q14 0 40 -9t26 -28q0 -10 -10 -26q-164 -201 -244 -301q-242 -305 -266 -439q-6 -29 -7 -57q0 -92 76 -92q152 0 395 281q20 20 35 23t15 -7t-13 -25q-238 -285 -422 -317 q-10 -2 -28 -2q-63 0 -95 44t-32 95q0 57 22 127l-166 -166q-113 -104 -177 -104t-107 35q-51 39 -51 108zM68 109q0 -74 51 -74q88 0 293 241q37 43 245 322q-14 25 -49 25q-127 0 -333.5 -193.5t-206.5 -320.5z" />
<glyph unicode="e" horiz-adv-x="526" d="M-68 127q0 143 180.5 331.5t323.5 188.5q47 0 77 -25.5t30 -62.5q0 -115 -173 -219t-282 -104q-16 0 -29 4q-31 -55 -30 -117q0 -107 101 -107h1q101 0 262 138q125 100 213 213q18 25 31.5 24.5t13.5 -12.5t-16 -35q-111 -145 -266.5 -258t-264.5 -113q-23 0 -41 7 q-131 37 -131 147zM90 285q12 -4 27 -4q78 0 208 82.5t162 181.5q5 10 5 18q0 25 -52.5 25t-148.5 -80q-129 -106 -201 -223z" />
<glyph unicode="f" horiz-adv-x="495" d="M-498 -258q6 25 19 25q6 0 8 -15q12 -53 41 -81.5t59 -28.5q174 0 318 215q82 123 223 442l111 266q-205 2 -205 49q0 20 19.5 35t33.5 15l193 -5q201 446 368 447q63 0 129 -62q17 -16 17 -43q0 -63 -37 -63q-10 0 -21 16q-18 33 -61 33q-94 0 -176 -135 q-16 -27 -103 -193h25q223 0 297 7q8 -2 8 -9q0 -16 -145 -45q-137 -23 -226 -39q-63 -131 -153 -311q-184 -344 -244 -428q-178 -254 -348 -254q-59 0 -103.5 50.5t-46.5 111.5z" />
<glyph unicode="g" horiz-adv-x="757" d="M-172 -258q6 25 18 25q6 0 11 -15q10 -53 38.5 -81.5t57.5 -28.5q117 0 250 153q88 102 194 299l103 203l-154 -156q-147 -141 -201.5 -141t-103.5 37q-55 41 -55 108q0 150 210 357t382 207q70 0 90 -45q6 -16 10 -27.5t6 -11.5l29 6q27 0 42 -16.5t15 -25.5t-2 -20.5 t-59 -103.5q-72 -125 -119 -211q-166 -309 -254 -424q-188 -250 -359 -250q-59 0 -103 50.5t-46 111.5zM72 121q0 -74 51 -74q119 0 323 260l218 299q-12 29 -52 29q-127 0 -333.5 -195.5t-206.5 -318.5z" />
<glyph unicode="h" horiz-adv-x="770" d="M-115 25q0 18 25 65q199 354 301 518q244 391 344 424q4 2 8 2q27 0 37 -43q-6 -43 -213 -311q-215 -272 -244 -356q76 55 265 186q203 141 268 141t65 -51q0 -8 -1 -11t-142 -193.5t-141 -280.5q0 -47 35 -47q111 4 331 266q18 18 27.5 18t9.5 -12q0 -41 -203 -221 q-127 -111 -172 -111q-120 0 -120 140q0 82 56 179t138 228q-262 -131 -475 -387q-119 -178 -139 -178q-59 0 -60 35z" />
<glyph unicode="i" d="M-31 113q0 111 121 306t195 197q20 0 45.5 -16t25.5 -33q-10 -14 -24.5 -31.5t-30.5 -38t-45 -58.5t-55 -72q-154 -199 -154 -274t51 -75q43 0 117 48q172 106 272 233q37 47 50.5 47t13.5 -16.5t-47 -65.5t-75 -77.5t-38 -38t-37.5 -35t-42 -35.5t-41 -30.5t-47 -30 t-47.5 -21.5q-43 -19 -102 -19q-104 0 -105 136zM367 778q0 57 77 58q31 0 58.5 -19.5t27.5 -46.5t-25.5 -46t-56 -19t-56 22.5t-25.5 50.5z" />
<glyph unicode="j" horiz-adv-x="411" d="M-543 -300q0 40 19 40q2 0 42 -52.5t93 -52.5q164 0 373 371q129 231 176 375q-25 -29 -85.5 -84t-73.5 -55t-13 6q0 18 32.5 47t88 108.5t65.5 88.5l68 71q41 39 89 39t48 -45q0 -12 -162 -291q-158 -301 -244 -420q-186 -266 -350 -266q-61 0 -113.5 40t-52.5 80z M340 780q0 59 78 60q31 0 58.5 -20.5t27.5 -46t-25.5 -45t-56.5 -19.5t-56.5 21.5t-25.5 49.5z" />
<glyph unicode="k" horiz-adv-x="806" d="M-57 68q0 88 264 483t362 465q8 6 33 6q63 0 64 -33q0 -16 -142.5 -184t-158.5 -203q186 96 297 96q63 0 108 -51q43 -43 43 -88v-12q-16 -117 -164 -193q-119 -63 -221 -63t-143 26q-12 2 -19.5 -6t-3.5 -20q57 -254 191 -254q70 0 179 78t228 219q14 14 25.5 14 t11.5 -11t-14 -32q-111 -135 -209 -213q-150 -117 -254 -117q-162 0 -275 256q-29 -43 -129 -241q-74 29 -73 78zM203 350q18 0 98 -6q92 0 242 76q172 86 172 182q0 16 -18.5 32.5t-39.5 16.5q-111 0 -265 -92t-189 -209z" />
<glyph unicode="l" horiz-adv-x="497" d="M-6 126q0 67 35 155q59 139 190 350q240 389 340 389q20 0 42 -15.5t24 -33.5q-47 -63 -181.5 -243.5t-185.5 -259.5t-76.5 -118t-38 -60.5t-28.5 -56.5q-35 -70 -35 -131t67.5 -61t174 71.5t206.5 194.5q25 33 39.5 33t14.5 -12t-84 -107q-205 -225 -342 -225 q-68 0 -115 31.5t-47 98.5z" />
<glyph unicode="m" horiz-adv-x="1292" d="M-76 181.5q0 13.5 17 29.5q76 76 135 151.5t196 270.5q23 31 64 31t41 -39q0 -14 -108.5 -199.5t-121.5 -232.5q84 92 252 247q252 233 332 234q25 0 45.5 -14.5t20.5 -32t-80 -154.5q-78 -141 -86 -168q227 190 227 193q192 149 276 149h1q25 0 46 -15.5t21 -35.5 q0 -4 -133 -173t-149 -278q-4 -37 14 -55t66.5 -18t141.5 66.5t189 178.5q37 41 50.5 41t13.5 -10q0 -14 -19 -33q-100 -121 -215.5 -205.5t-181.5 -84.5q-139 0 -139 129q0 74 65.5 201.5t136.5 215.5q-127 -61 -292.5 -222t-231.5 -337q-10 -16 -35 -16q-49 0 -49 55 q20 113 92 258q23 47 133 275q-160 -104 -271.5 -224t-206.5 -241t-107 -121q-27 0 -46.5 24.5t-19.5 49.5q0 37 107 270l-123 -129q-45 -45 -56.5 -45t-11.5 13.5z" />
<glyph unicode="n" horiz-adv-x="825" d="M-76 181.5q0 13.5 17 29.5q76 76 131 145q53 70 219 267q19 24 39 24q55 0 55 -43q0 -12 -6 -24q-184 -256 -221 -387q477 477 579 477q10 2 19 2q57 0 57 -51q0 -10 -4 -20.5t-82 -111.5q-90 -106 -152.5 -204.5t-62.5 -164t29 -65.5q90 0 313 248q4 4 14 19 q31 37 37 36.5t6 -21t-28 -52.5q-254 -289 -361 -289q-100 0 -100 110.5t82 253.5l131 213q-139 -102 -247.5 -224t-198 -236.5t-103.5 -114.5q-31 0 -48.5 25.5t-17.5 63.5t27 101.5t68 153.5l-123 -129q-45 -45 -56.5 -45t-11.5 13.5z" />
<glyph unicode="o" horiz-adv-x="575" d="M-20 137q0 123 179 345.5t290 222.5q104 0 104 -111q0 -29 -10 -74q2 -6 38.5 -6t112.5 39q-2 -35 -162 -100q3 -9 3 -19q0 -72 -138 -239q-162 -199 -276 -199h-33q-53 0 -84 55q-25 39 -24 86zM76 135q0 -78 49 -78q88 0 223 160t135 229q-33 19 -82 95 q-70 0 -197.5 -164t-127.5 -242z" />
<glyph unicode="p" horiz-adv-x="772" d="M-205 -204q0 136 226.5 471t312.5 364q20 4 26 4q35 0 35 -76q20 20 84 39q78 20 111 20q74 0 128 -41.5t54 -113.5q0 -166 -189.5 -314.5t-328.5 -148.5q-92 0 -134 12.5t-93 73.5q-35 -29 -94.5 -146.5t-59.5 -201.5q0 -39 39 -103q4 -10 -6 -17t-15.5 -7t-9.5 2 q-86 47 -86 183zM57 131q0 -37 56.5 -55.5t113.5 -18.5q113 0 277 128t164 298q0 78 -92.5 78t-167.5 -39q-35 -16 -193 -180t-158 -211z" />
<glyph unicode="q" horiz-adv-x="679" d="M-57 119q0 86 108 213q96 106 191 160q223 124 364 124h2q45 0 56 -34v-66q35 -27 35 -34q0 -6 -7 -15l-162 -154q-154 -158 -211 -288q12 4 67.5 4t86.5 -48.5t31 -95.5q0 -98 -86 -231q-94 -150 -205 -150q-106 0 -107 158q0 96 52 217l94 219q-131 -90 -209 -90 q-100 0 -100 111zM4 88q0 -39 49 -39q102 0 275 178l258 275q-4 12 -27 12q-104 0 -314 -136t-239 -278q-2 -6 -2 -12zM170 -350q0 -41 16.5 -73t44.5 -32q76 0 133.5 131t57.5 197t-28.5 86.5t-94.5 22.5q-39 -61 -84 -176t-45 -156z" />
<glyph unicode="r" horiz-adv-x="806" d="M-10 242q0 20 35 59q178 207 251 350q47 178 119 178q47 0 47 -40.5t-51 -104.5l-49 -66q0 -43 64 -43q37 0 81 27l54 33q4 2 20.5 2t34.5 -20.5t12 -36.5l-141 -179q-131 -168 -131 -265t90 -97q94 0 231 100q82 59 150 133q63 74 70 74q14 0 14 -15.5t-19 -35.5 l-65 -74q-55 -57 -123 -110q-162 -121 -266 -121q-154 0 -154 170q0 86 45 188.5t99 171.5q-10 -2 -27 -2q-49 0 -82 70l-152 -197q-127 -158 -147 -158q-10 0 -10 9z" />
<glyph unicode="s" horiz-adv-x="735" d="M-43 213q0 14 10 25q68 84 230 241l258 242q111 104 131 104q65 0 65 -48q0 -26 -19.5 -49t-28.5 -36.5t-19 -25.5q-37 -63 -75 -262t-58 -277q170 2 350 221q20 20 30.5 20.5t10.5 -13t-19 -36.5q-119 -139 -221 -194q-61 -31 -160 -51l-65 -43q-59 -35 -146.5 -35 t-133.5 57.5t-79 182.5q-37 -37 -51 -37q-10 0 -10 14zM100 258q0 -70 46.5 -114t103.5 -44t88 23q41 23 81 188.5t48 292.5l8 70q-113 -84 -241 -217t-132 -176q-2 -13 -2 -23z" />
<glyph unicode="t" horiz-adv-x="608" d="M-14 127q0 84 73.5 230.5t112.5 217.5q-29 -6 -49 -6q-59 0 -60 47q0 35 50 50q6 0 18 2h119q37 47 84 108q57 74 77.5 74t51.5 -16.5t31 -39t-99 -132.5q54 -3 140 -3l294 5q6 -4 7 -7q0 -18 -255 -51t-276 -39q-39 -35 -143.5 -208t-104.5 -253q0 -75 102 -75h3 q49 0 129 30.5t123 57.5q115 72 245 211q29 29 39 28q6 0 6.5 -12t-30.5 -49q-106 -131 -240 -211q-160 -98 -305 -98q-63 0 -103 27.5t-40 111.5z" />
<glyph unicode="u" horiz-adv-x="870" d="M-39 213q0 10 19 35l282 332q53 61 108.5 61t55.5 -37q0 -14 -12 -26q-82 -76 -206 -252t-124 -260q0 -37 25 -37q86 0 249 170q57 57 213 252.5t205 195.5q74 0 74 -57q0 -20 -86 -119q-117 -141 -178.5 -230t-61.5 -144.5t31 -55.5q14 0 33 8q141 61 338 287 q12 14 24.5 14t12.5 -13t-15 -30q-88 -102 -207 -205.5t-168 -113.5q-10 -2 -43.5 -2t-67.5 26.5t-34 68.5t15.5 93t21.5 78q-236 -274 -369 -275q-84 0 -92 105v14q0 88 107 238q-59 -53 -121 -123q-8 -8 -21 -8q-8 0 -8 10z" />
<glyph unicode="v" horiz-adv-x="616" d="M-29 63q0 45 98.5 305.5t135.5 290.5q8 8 26.5 8.5t39 -19t22.5 -46.5q1 -2 -101 -238q-96 -222 -96 -274v-6q88 27 314.5 215t226.5 338q0 90 -90 131q-14 6 -15 18q0 19 23 19q61 0 104 -41t43 -115q0 -162 -268 -405q-227 -205 -366 -250q-23 0 -60 24.5t-37 44.5z " />
<glyph unicode="w" horiz-adv-x="919" d="M-39 61q0 49 125 325t186 276q23 0 41.5 -22t18.5 -33t-111.5 -210.5t-109.5 -240.5q195 236 206 250q199 229 261 229q23 0 44 -19.5t21 -35t-57.5 -91t-97 -148.5t-39.5 -146q0 -129 86 -129h26q111 0 202 168.5t91 271.5q0 82 -27 127q-4 4 -4 10q0 12 13 12 q37 0 57 -45q25 -39 25 -135q0 -147 -129.5 -302t-278.5 -155q-72 0 -116 70t-44 143.5t33 180.5q-59 -59 -174 -204t-156 -212q-20 0 -56 22.5t-36 42.5z" />
<glyph unicode="x" horiz-adv-x="874" d="M-72 184.5q0 10.5 65.5 83t174 237.5t156 208t88.5 43t59 -11.5t13 -39t-8 -48t-5 -47.5q-12 -96 -14 -157q100 96 452 395q4 4 14.5 4t27 -17.5t16.5 -35t-17 -33.5q-66 -53 -228.5 -171t-268.5 -216q-2 -43 -2 -117t18 -135q25 -80 90 -80q117 0 361 281q20 20 30.5 20 t10.5 -13t-17 -32q-127 -150 -203 -213q-147 -123 -244.5 -123t-127.5 142q-10 57 -15 172q-250 -266 -374 -482q-6 -8 -17 -8q-25 0 -24 23q0 6 4 10q190 301 411 528q8 281 11 316q-47 -10 -201 -238q-76 -115 -133.5 -176t-68.5 -70.5t-22.5 -9.5t-11.5 10.5z" />
<glyph unicode="y" horiz-adv-x="757" d="M-115 -238q97 -122 169 -122h1q117 0 252 186q98 137 193 346l78 188l-302 -235q-139 -109 -223 -109q-45 0 -71.5 31t-26.5 70q0 88 151.5 289.5t221 201.5t69.5 -47q0 -18 -181 -211.5t-181 -261.5q0 -27 35 -27q66 0 263 154t298 254q23 27 63 80q39 45 86 45t47 -45 q0 -8 -92 -145.5t-96 -145.5q-63 -123 -195 -358q-199 -319 -397 -320q-66 0 -115 56q-47 54 -47 121v5z" />
<glyph unicode="z" horiz-adv-x="790" d="M-27 78q0 18 12.5 45t24.5 27q18 0 8 -31q-6 -31 18.5 -31t59.5 25l-78 59q-4 4 -4 14.5t20.5 30t32 19.5t99.5 -70q254 287 373 377q-162 49 -240 49q-23 0 -43 -3t-44 -24.5t-24 -48.5t22.5 -44t22.5 -27.5t-15 -10.5t-50 41q-33 41 -33 84q0 72 105 94q54 11 112 11h1 q58 0 282 -74q29 16 61 16q86 0 86 -51q0 -20 -26.5 -37.5t-63.5 -17.5t-67 14q-195 -121 -418 -381l74 -57q89 -58 205 -58h3q115 0 169 37q56 37 55 95q0 27 -10.5 50t18.5 23q10 0 20.5 -23.5t10.5 -56.5q0 -82 -78 -135t-201 -53q-135 0 -223 51q-35 19 -113 78 q-82 -57 -117 -57q-47 0 -47 51z" />
<glyph unicode="{" horiz-adv-x="661" d="M18 530l23 33q145 16 201 60q70 51 96 182l45 252q31 127 108.5 190.5t243.5 63.5h10h5q12 0 22 -19l-27 -10q-158 0 -221 -88q-43 -59 -71 -223q-8 -53 -37 -170q-68 -217 -238 -258q135 -50 135 -187q0 -68 -33.5 -212t-33.5 -230t57 -111l133 -24l19 -17 q-29 -12 -39 -12q-115 0 -172 29q-80 41 -80 151q0 72 37 216.5t37 220.5q0 160 -220 163z" />
<glyph unicode="|" horiz-adv-x="448" d="M104 -206q0 3 9 38q31 129 63 289q68 393 68 780q0 160 -13 242q-25 102 -24.5 120.5t35.5 18.5q82 0 82 -181t-58.5 -693t-109.5 -582q-25 -35 -50 -35q-2 0 -2 3z" />
<glyph unicode="}" horiz-adv-x="870" d="M31 -227q23 10 104 18q139 8 197 148l80 249q51 162 118 224q82 80 201 114q-150 37 -149 162q0 86 51 237.5t51 231.5t-55 98l-121 19l-16 14l28 17q106 0 160 -19q90 -31 90 -122t-56.5 -248.5t-56.5 -233.5t62 -111q51 -25 143 -32l-26 -35q-178 -4 -256 -109 q-45 -63 -99 -260q-45 -182 -110 -260q-103 -121 -316 -121h-2q-12 0 -22 19z" />
<glyph unicode="~" horiz-adv-x="620" d="M98 819q0 29 86 82q33 20 70 20.5t101.5 -21t107.5 -21.5t76 45q12 -1 12 -9q0 -31 -80 -86q-29 -18 -61.5 -18t-99 27.5t-100.5 27.5t-66.5 -26.5t-43.5 -26.5q-2 2 -2 6z" />
<glyph unicode="&#xa1;" horiz-adv-x="604" d="M-102 -406q0 6 8 15q90 94 250 307q166 213 188.5 266.5t44.5 53.5q10 0 10 -15q0 -123 -179 -392t-238 -269q-25 0 -54.5 9t-29.5 25zM352 406.5q0 25.5 27 45t56.5 19.5t55 -21.5t25.5 -50.5q0 -59 -78 -59q-31 0 -58.5 20.5t-27.5 46z" />
<glyph unicode="&#xa2;" horiz-adv-x="604" d="M51 -72q0 8 10 60q39 203 111 299q-49 33 -49 115.5t93 182t171 99.5h14q18 39 91 162t88.5 134t32 11t16.5 -14q0 -6 -33 -52t-160 -255q10 -10 10 -27.5t-24.5 -59.5t-40.5 -42q-6 0 -6 8l12 47q0 35 -53 35t-100.5 -78t-47.5 -141q0 -104 93 -105q113 0 241 160 q14 20 24.5 20t10.5 -6q0 -25 -69.5 -88t-120 -96t-115.5 -33q-12 0 -33 4q-70 -92 -139 -350q-4 -4 -6 -4q-20 0 -21 14z" />
<glyph unicode="&#xa3;" horiz-adv-x="1804" d="M78 240q0 76 88 75q125 0 563 -221q139 170 270 553h-329q-25 0 -25 17q0 47 49 47h328q162 483 307 651q121 135 260 135q78 0 127 -50t49 -132q0 -201 -223 -307q-14 -8 -25.5 -8.5t-11.5 16t21.5 32t39 31t27.5 23.5q109 100 109 235q0 47 -28.5 72t-71.5 25 t-90.5 -30t-90.5 -87q-55 -74 -118.5 -183.5t-192.5 -422.5h352q16 0 17 -15q0 -49 -60 -49h-334q-92 -223 -131 -303q-94 -195 -176 -270q109 -68 279 -107q166 -45 296 -45t230 37q141 45 141 152q0 41 -37.5 78.5t-37.5 49t9 11.5t17 -8q117 -86 117 -159t-35 -122 t-94 -72q-233 -92 -576 9q-182 53 -358 145q-158 -100 -291 -100t-246.5 87t-113.5 210zM211 207q0 -84 74 -152q76 -61 182.5 -61t196.5 63q-53 41 -211 103.5t-200 62.5t-42 -16z" />
<glyph unicode="&#xa4;" horiz-adv-x="1060" d="M100 477l209 197q-72 45 -71 133q0 141 137 223l-109 166l60 18q8 -37 80 -167q80 35 160.5 34.5t133.5 -24.5q88 86 148 153l47 -18q-4 -4 -33 -29q-74 -64 -137 -123q59 -43 59 -123.5t-45 -143t-118 -97.5q98 -162 129 -197h-68q-8 27 -98 180q-59 -20 -131 -20 t-119 23l-168 -185h-66zM317 850q0 -72 42 -112t131.5 -40t153 58.5t63.5 128.5q0 145 -148 145q-106 0 -174 -54t-68 -126z" />
<glyph unicode="&#xa5;" horiz-adv-x="1124" d="M211 334q0 51 63 51h218l112 176h-139h-80q-45 2 -41 21q12 49 62 49h235q264 473 264 604q0 94 -106.5 94t-282.5 -124t-248 -222q-18 -27 -26 2q-2 10 -2 32.5t28 59.5q92 117 251 207t285 90t167 -55q20 -29 20 -76q0 -168 -211 -514l-57 -98h12q193 205 498 444 q387 315 612 316q61 0 90 -21.5t29 -39t-4 -28t-6 -10.5l-15 35q-18 33 -63 33q-123 0 -476 -254t-564 -473l282 2q-6 -14 -17 -19.5t-44 -11.5t-63.5 -10t-96.5 -11.5t-119 -15.5l-55 -59q-4 -6 -38 -54t-46 -69l352 10q2 -2 -1 -10t-56 -20q-133 -35 -332 -43 q-174 -295 -174 -371q0 -29 23 -29q35 0 149 82q10 0 8 -12q-8 -31 -97 -75t-122 -44q-74 0 -74 78q0 100 144 366l-158 2q-90 0 -90 15z" />
<glyph unicode="&#xa6;" horiz-adv-x="448" d="M205 -161.5q0 24.5 10 108.5t10 180l-2 440l86 2q-27 -596 -53 -700q-14 -55 -32.5 -55t-18.5 24.5zM207 1262q0 20 35 20q82 0 82 -187.5t-11 -435.5l-90 5v245q0 199 -8 270.5t-8 82.5z" />
<glyph unicode="&#xa7;" horiz-adv-x="1167" d="M-57 -104q0 86 90 165q82 78 198 125q16 10 29.5 10.5t20.5 -8.5q0 -10 -74 -47t-129 -98q-68 -65 -68 -137q0 -150 232 -150q207 0 411 92q129 51 197 150q23 33 22 59q0 84 -92 146q-49 31 -155.5 73.5t-182 75.5t-138 102.5t-62.5 174t88 207t229 159.5q-23 49 -22 99 q0 109 104 214t262 171q174 74 334 73q98 0 122.5 -42t24.5 -79.5t-5 -63.5t-27.5 -63.5t-46.5 -39.5q-14 0 -7 26q10 70 11 82q0 104 -150 105q-90 0 -213 -40t-224 -118t-101 -168q10 -113 83.5 -179.5t167 -101t185.5 -67.5q219 -74 219 -203q0 -109 -96.5 -216.5 t-239.5 -166.5q43 -43 43 -87t-21.5 -90t-74.5 -93q-104 -92 -219 -144q-229 -111 -441 -110q-242 0 -280 166q-4 18 -4 37zM326 676q10 -100 63 -156q59 -57 111.5 -82.5t77.5 -36.5q70 -31 143 -55q113 -45 180 -92q111 37 189.5 116t78.5 159.5t-69.5 133t-158.5 80 t-194.5 81t-158.5 120.5q-111 -41 -186.5 -111.5t-75.5 -156.5z" />
<glyph unicode="&#xa8;" horiz-adv-x="534" d="M66 769q0 24 59 67q61 43 94 43q2 0 6 -2q-2 0 -28 -37l-33 -82q-24 -56 -55 -56q-14 0 -28.5 21.5t-14.5 45.5zM225 877h2v-3q0 2 -2 3zM313 769q0 24 60 67q61 43 94 43l6 -2q-2 0 -29 -37l-32 -82q-25 -55 -56 -56q-14 0 -28.5 21.5t-14.5 45.5zM473 877h2v-3z" />
<glyph unicode="&#xa9;" horiz-adv-x="1306" d="M84 379q0 242 255 466t501 224q145 0 247.5 -90.5t102.5 -233.5q0 -238 -250 -462t-496 -224q-145 0 -252.5 87t-107.5 233zM158 377q0 -125 98 -201q88 -74 217 -74q217 0 428 205t211 422q0 131 -82 215t-211 84q-229 0 -445 -211t-216 -440zM268 367q0 188 202 371.5 t394 183.5q101 0 101 -82q0 -61 -37 -66l-10 8q6 55 10 52q-4 70 -74 69q-160 0 -338 -191.5t-178 -353.5q0 -98 99.5 -98t255 86t153.5 92q6 0 6 -6q0 -70 -164 -133t-241.5 -63t-122.5 30q-55 33 -56 101z" />
<glyph unicode="&#xaa;" horiz-adv-x="491" d="M-18 625q0 150 208.5 357.5t382.5 207.5q68 0 91 -47q6 -16 10 -27.5t6 -11.5l29 6q23 0 43 -18.5t20 -28.5t-127 -197.5t-127 -261.5q0 -6 2 -12q10 -47 45 -47q106 0 389 352q6 8 14.5 8t8.5 -15.5t-19 -39.5q-262 -350 -399 -350q-18 0 -35 6q-90 35 -90 135 q0 35 8 70l-127 -123q-121 -106 -175 -106.5t-103 34.5q-55 41 -55 109zM68 600q0 -74 51 -74q119 0 323 260l217 299q-16 29 -53 29q-125 0 -331.5 -193.5t-206.5 -320.5z" />
<glyph unicode="&#xab;" horiz-adv-x="860" d="M174 524q0 25 104.5 171.5t130 178t43 31.5t17.5 -12q0 -30 -203 -313q199 -250 199 -275.5t-16 -25.5q-4 0 -21 8q-47 63 -117 121l-131 104q-6 4 -6 12zM461 530.5q0 14.5 102.5 161t131 180t45 33.5t16.5 -12q0 -30 -203 -313q201 -254 201 -277.5t-19 -23.5 q-4 0 -20 8q-51 68 -115 121l-133 104q-6 4 -6 18.5z" />
<glyph unicode="&#xac;" horiz-adv-x="530" d="M6 121q0 125 325.5 587.5t391.5 462.5q84 0 84 -34q0 -6 -8 -15q-223 -244 -472 -596t-249 -481q0 -78 76 -92q6 -2 6 -4q0 -14 -45 -15q-66 0 -92 80q-16 53 -17 107z" />
<glyph unicode="&#xad;" horiz-adv-x="608" d="M39 481q0 20 17.5 34.5t29.5 14.5t25 2h53h51l199 -2q119 0 170 7q2 -2 2 -7q0 -31 -162 -59q-88 -12 -165 -25.5t-98.5 -13.5t-71.5 9.5t-50 39.5z" />
<glyph unicode="&#xae;" horiz-adv-x="1306" d="M84 379q0 242 255 466t501 224q145 0 247.5 -90.5t102.5 -233.5q0 -238 -250 -462t-496 -224q-145 0 -252.5 87t-107.5 233zM158 377q0 -125 98 -201q88 -74 232.5 -74t308.5 119q-76 18 -141.5 119.5t-94.5 200.5q-18 0 -24 6l22 8l14 10l19 -6q358 49 358 199 q0 117 -231 116q-78 0 -200 -35.5t-200 -76.5q-162 -193 -161 -385zM284.5 237.5q0.5 81.5 164.5 319.5q133 199 239 305l45 -22q-6 -10 -112.5 -146.5t-159.5 -216.5q-129 -188 -146 -299q-4 -22 -8 -22q-23 0 -22.5 81.5zM381 827q184 72 346 72q98 0 172 -31 q102 -41 102 -125q0 -102 -145 -161q-104 -43 -233 -47q27 -96 73 -175q63 -104 140 -108q276 221 276 477q0 131 -82 215t-211 84q-225 0 -438 -201z" />
<glyph unicode="&#xaf;" horiz-adv-x="1024" d="M451 1262q33 16 201.5 16t217.5 -25q6 -4 7 -6q0 -10 -13 -10q-63 0 -186 -12.5t-184 -12.5q-10 0 -25.5 19t-17.5 31z" />
<glyph unicode="&#xb0;" horiz-adv-x="579" d="M133 831.5q0 73.5 51.5 125t125 51.5t124.5 -51.5t51 -125t-52 -125t-124.5 -51.5t-124 51.5t-51.5 125zM178 831.5q0 -53.5 39 -92.5t92 -39t92 39t39 92.5t-39 92.5t-92 39t-92 -39t-39 -92.5z" />
<glyph unicode="&#xb1;" horiz-adv-x="897" d="M125 627l10 10q84 8 181.5 8h132.5l-13 283q0 12 15.5 24.5t29.5 12.5l11 -11q8 -82 8 -178v-131q164 -4 315 -14q12 -6 12 -13v-8l-18 -12q-160 0 -309 -2q-2 -274 -11.5 -293.5t-19.5 -19.5q-20 0 -20 204v107l-285 -10q-12 0 -24.5 14t-14.5 29zM229 182 q33 16 202 16.5t218 -24.5q6 -2 6 -6q0 -10 -12 -10q-63 0 -186 -12.5t-185 -12.5q-10 0 -25.5 18.5t-17.5 30.5z" />
<glyph unicode="&#xb2;" horiz-adv-x="931" d="M0 793q0 27 31 47q49 35 133 34q23 0 47 -2q297 182 378 246t128 123q59 70 67 160q0 68 -81.5 67.5t-197.5 -53.5t-183 -112q-8 -4 -16.5 -4.5t-8.5 13t8 15.5q88 76 227.5 137.5t246 61.5t106.5 -88q-8 -100 -115 -211q-49 -51 -175 -150.5t-353 -218.5q59 -6 193 -51 t197.5 -45t112 21.5t48.5 62.5q0 49 -76 76q-8 6 -8 10q0 16 20 10q102 -31 102 -98q0 -57 -61 -92t-132 -35t-175 35l-170 61q-59 16 -92 16q-139 -59 -170 -59t-31 23z" />
<glyph unicode="&#xb3;" horiz-adv-x="974" d="M39 909q0 37 26.5 86t118.5 90q78 31 114 31t36 -8q0 -12 -29 -12t-90 -37q-66 -43 -82 -86l-6 -43q0 -106 147 -133q39 -6 76 -6q109 0 219 51q172 80 234 229q8 18 8 43q0 47 -49 69.5t-123 22.5t-102.5 -11t-42.5 -11q-23 0 -23 20q0 14 11.5 25.5t25.5 11.5 q104 0 197 35q119 45 133 133q2 6 2 14q0 53 -67.5 53.5t-157 -34.5t-113 -51.5t-30.5 -16.5t-7 25.5t24 32.5q27 8 61 39.5t42 31.5q6 -4 6 -10t-6 -14q-2 0 -10 -9q133 55 219 56q121 0 117 -111q-6 -106 -222 -174q186 -20 187 -131q0 -14 -6 -33q-37 -145 -218 -237 q-162 -78 -346 -78q-121 0 -197.5 39t-76.5 108z" />
<glyph unicode="&#xb4;" horiz-adv-x="452" d="M98 540.5q0 10.5 8 16.5l216 166q23 18 34 18q18 0 18.5 -24.5t-16.5 -40.5q-18 -14 -124.5 -80t-121 -66t-14.5 10.5z" />
<glyph unicode="&#xb5;" horiz-adv-x="870" d="M-162 -204q0 136 232 478l26 41l-92 -84q-12 -12 -22.5 -12t-10.5 11.5t21 31.5l270 318q55 61 109.5 61t54.5 -37q0 -14 -26.5 -39.5t-80.5 -87.5q-16 -25 -53 -71q-39 -51 -45 -62q-137 -195 -137 -278q0 -37 25 -37q39 0 139 77l110 93q33 25 209 250q160 199 209 198 q74 0 74 -57q0 -20 -86 -119q-117 -141 -178.5 -230t-61.5 -144.5t31 -55.5q14 0 33 8q147 66 338 283q12 14 24.5 14t12.5 -10q0 -41 -207 -223q-133 -115 -183 -125q-10 -2 -43.5 -2t-67.5 26.5t-34 68.5t15.5 93t21.5 78l-180 -180q-106 -94 -176.5 -94t-90.5 45 q-102 -178 -102 -285q0 -39 39 -103q4 -10 -6 -17t-15.5 -7t-9.5 2q-86 47 -86 183z" />
<glyph unicode="&#xb6;" horiz-adv-x="1122" d="M-106 -344q6 12 20 12q180 0 365 375q61 129 213 541q-315 27 -316 231q0 176 189.5 301t373.5 125l222 8q53 0 79 -8q82 86 174 86q53 0 66 -27q-4 -4 -40 -11t-52 -17q-109 -63 -260 -400l-250 -602q-166 -391 -260 -391q-12 0 -12 8q4 10 28 33q111 104 246 506 q74 227 137 410q94 246 203 376h-21q-143 0 -323 -381q-78 -160 -207 -520q-78 -213 -211 -407q-180 -266 -332 -266q-29 0 -32 18z" />
<glyph unicode="&#xb7;" d="M180 651q0 59 78 60q31 0 58.5 -20.5t27.5 -46.5t-25.5 -45t-56.5 -19t-56.5 21.5t-25.5 49.5z" />
<glyph unicode="&#xb8;" horiz-adv-x="458" d="M31 -551q0 10 18 16q98 16 148 23q72 23 71 119q0 27 -53 103.5t-53 115.5q0 72 40 125t103 53q23 0 25 -14q-43 -8 -68.5 -44t-25.5 -85q0 -23 59 -100t59 -132q0 -96 -99 -149t-206 -53q-18 0 -18 22z" />
<glyph unicode="&#xb9;" horiz-adv-x="714" d="M-2 766q0 16 21.5 24.5t113.5 40.5l309 564q-63 -41 -172 -82q-18 -6 -18 12q0 10 10 16q82 31 234 148l6 12q14 23 53 23t39 -19q0 -4 -399 -663q78 14 176 14q12 0 12 -12q0 -18 -18 -19q-88 0 -158 -22.5t-128.5 -47t-63.5 -24.5t-11 9.5t-6 25.5z" />
<glyph unicode="&#xba;" horiz-adv-x="391" d="M-20 616q0 123 179 345.5t290 222.5q104 0 104 -111q0 -29 -10 -74q2 -6 38.5 -6t112.5 39q-2 -35 -162 -100q3 -9 3 -19q0 -72 -138 -239q-162 -199 -276 -199h-33q-53 0 -84 55q-25 39 -24 86zM76 614.5q0 -77.5 49 -77.5q88 0 223 159.5t135 229.5q-33 18 -82 94 q-70 0 -197.5 -164t-127.5 -241.5z" />
<glyph unicode="&#xbb;" horiz-adv-x="860" d="M174 276q0 31 203 314q-201 256 -201 278.5t19 22.5q4 0 20 -8q57 -80 248 -226q6 -2 6 -17t-102.5 -161.5t-131 -180.5t-45 -34t-16.5 12zM494 276q-1 31 202 314q-201 256 -200.5 278.5t18.5 22.5q4 0 21 -8q57 -80 247 -226q6 -2 6 -17t-102 -161.5t-131 -180.5 t-45 -34t-16 12z" />
<glyph unicode="&#xbc;" horiz-adv-x="1632" d="M-2 766q0 16 21.5 24.5t113.5 40.5l309 564q-63 -41 -172 -82q-18 -6 -18 12q0 10 10 16q82 31 234 148l6 12q14 23 53 23t39 -19q0 -4 -399 -663q78 14 176 14q12 0 12 -12q0 -18 -18 -19q-88 0 -158 -22.5t-184 -69.5q-10 -4 -17.5 6.5t-7.5 26.5zM389 231 q0 41 34 130.5t314 467.5q281 371 310 371q12 0 24 -11t-6 -36q-168 -193 -380 -476t-255 -394q-8 -29 -8 -45.5t10 -21.5t3 -15.5t-26.5 -10.5t-19.5 41zM649 197.5q0 25.5 26.5 35t69.5 17.5q66 35 202 133t173 121q250 156 279 215l12 16q6 8 21 8q41 0 41 -22 q0 -4 -3 -4l-215 -311q-72 -106 -122 -197q90 -29 133 -29t73 21q35 31 35 59.5t-4 42.5t8.5 14t20.5 -12q23 -39 22 -76q0 -84 -149 -84q-63 0 -160 31q-57 -111 -57 -199q0 -41 6 -63.5t8 -32.5q0 -22 -20 -22q-35 0 -35 94t53 235q-96 27 -166 27t-217 -61 q-14 -4 -24.5 7t-10.5 36.5zM831 262q61 6 105.5 6t148.5 -41q49 113 232 373q-82 -49 -254.5 -173t-231.5 -165z" />
<glyph unicode="&#xbd;" horiz-adv-x="1644" d="M-2 766q0 16 21.5 24.5t113.5 40.5l309 564q-63 -41 -172 -82q-18 -6 -18 12q0 10 10 16q82 31 234 148l6 12q14 23 53 23t39 -19q0 -4 -399 -663q78 14 176 14q12 0 12 -12q0 -18 -18 -19q-88 0 -158 -22.5t-184 -69.5q-10 -4 -17.5 6.5t-7.5 26.5zM389 231 q0 41 34 130.5t314 467.5q281 371 310 371q12 0 20 -8t8 -16.5t-10 -22.5q-168 -193 -381 -477q-262 -350 -262 -432q0 -23 10 -28t3 -15.5t-26.5 -10.5t-19.5 41zM614 18.5q0 24.5 31 47.5q49 33 133 32q23 0 47 -2q297 182 378 246t128 121q59 72 68 162q0 68 -82 67.5 t-197.5 -53.5t-183.5 -113q-8 -4 -16.5 -4t-8.5 13.5t9 15.5q88 76 227 137.5t245.5 61.5t106.5 -88q-8 -100 -115 -211q-49 -51 -175 -150.5t-353 -218.5q57 -6 192.5 -51t199 -45t111.5 21.5t48 62.5q0 49 -76 75q-8 6 -8 11q0 16 20 10q102 -31 103 -98q0 -57 -61.5 -92 t-132 -35t-175.5 34l-170 62q-59 16 -92 16q-139 -59 -170 -59t-31 24.5z" />
<glyph unicode="&#xbe;" horiz-adv-x="1871" d="M39 905q0 37 26.5 86t118.5 90q78 31 114 31t36 -8q0 -12 -29 -12t-90 -37q-66 -43 -82 -86l-6 -43q0 -106 147 -133q39 -6 76 -7q109 0 219 52q172 80 234 229q8 18 8 43q0 47 -49 69.5t-123 22.5t-102.5 -11t-42.5 -11q-23 0 -23 20q0 14 11.5 25.5t25.5 11.5 q104 0 197 35q119 45 133 133q2 6 2 14q0 53 -67.5 53.5t-157 -34.5t-113 -51.5t-30.5 -16.5t-7 25.5t24 31.5q27 8 61 40t42 32q6 -4 6 -10t-6 -14q-2 0 -10 -9q133 55 219 56q121 0 117 -111q-6 -106 -222 -174q186 -20 187 -131q0 -14 -6 -33q-37 -145 -218 -237 q-162 -78 -346 -78q-121 0 -197.5 39t-76.5 108zM645 231q0 41 34 130.5t314 467.5q281 371 310 371q12 0 24 -11t-6 -36q-168 -193 -380 -476t-255 -394q-8 -29 -8 -45.5t9 -21.5t3 -15.5t-25.5 -10.5t-19.5 41zM905 197.5q0 25.5 26.5 35t69.5 17.5q66 35 202 133t173 121 q250 156 279 215l12 16q6 8 21 8q41 0 41 -22q0 -4 -3 -4l-215 -311q-72 -106 -122 -197q90 -29 133 -29t73 21q35 31 35 59.5t-4 42.5t8.5 14t20.5 -12q23 -39 22 -76q0 -84 -149 -84q-66 0 -160 31q-57 -111 -57 -199q0 -41 6 -63.5t8 -32.5q0 -22 -20 -22q-35 0 -35 94 t53 235q-96 27 -166 27t-217 -61q-14 -4 -24.5 7t-10.5 36.5zM1087 262q61 6 105.5 6t148.5 -41q49 113 232 373q-82 -49 -254.5 -173t-231.5 -165z" />
<glyph unicode="&#xbf;" horiz-adv-x="821" d="M-16 -227q0 125 108 211q27 20 246 147q143 82 197 182q18 35 31.5 35t13.5 -18.5t-5 -30.5q-51 -106 -180 -190q-184 -115 -223 -152q-88 -80 -88 -147.5t73.5 -107.5t187.5 -40t205 53.5t107 155.5q4 27 -21.5 50.5t-72.5 23.5t-106 -62q-14 -14 -19 0q-6 16 8 31 q68 70 132.5 70t96.5 -32t32 -75v-10q-12 -137 -134 -213t-251 -76q-338 0 -338 195zM535 525.5q0 25.5 25.5 45t56 19.5t56 -21.5t25.5 -50.5q0 -59 -80 -59q-29 0 -56 20.5t-27 46z" />
<glyph unicode="&#xc0;" horiz-adv-x="2088" d="M-2 86q0 176 111 373q147 262 403 447.5t459 185.5t203 -150q0 -100 -61.5 -223t-125.5 -156q-6 -2 -13 -2t-7 4l67 111q70 109 70 190.5t-36 132t-114 50.5q-160 0 -382 -178.5t-337.5 -438.5t-115.5 -405q0 -219 223 -220q213 0 578 275q162 121 526 457 q-72 -4 -133 -15q-131 -25 -123 8q8 76 78 76q135 -16 227 -16q176 162 526 530q236 248 287 248q23 0 23 -35t-18.5 -108.5t-41.5 -89.5q-47 -33 -88 -89.5t-117 -211t-129 -250.5l199 4q74 0 74 -10q0 -27 -299 -48q-190 -373 -191 -507q0 -94 60 -95q23 0 56.5 28 t40.5 28t7 -11q-10 -37 -62.5 -61.5t-88 -24.5t-56.5 5q-49 18 -49 118q0 207 158 527l-246 -7q-274 -268 -551 -471q-414 -301 -647 -301q-14 0 -29 2q-315 27 -315 324zM1577 594h121q43 -2 106 -2q59 116 297 493zM2134 1664q0 26 20 26q25 -1 250 -185q8 -6 8.5 -15 t-12 -9t-121 65.5t-127 78.5t-18.5 39z" />
<glyph unicode="&#xc1;" horiz-adv-x="2088" d="M-2 86q0 176 111 373q147 262 403 447.5t459 185.5t203 -150q0 -100 -61.5 -223t-125.5 -156q-6 -2 -13 -2t-7 4l67 111q70 109 70 190.5t-36 132t-114 50.5q-160 0 -382 -178.5t-337.5 -438.5t-115.5 -405q0 -219 223 -220q213 0 578 275q162 121 526 457 q-72 -4 -133 -15q-131 -25 -123 8q8 76 78 76q135 -16 227 -16q176 162 526 530q236 248 287 248q23 0 23 -35t-18.5 -108.5t-41.5 -89.5q-47 -33 -88 -89.5t-117 -211t-129 -250.5l199 4q74 0 74 -10q0 -27 -299 -48q-190 -373 -191 -507q0 -94 60 -95q23 0 56.5 28 t40.5 28t7 -11q-10 -37 -62.5 -61.5t-88 -24.5t-56.5 5q-49 18 -49 118q0 207 158 527l-246 -7q-274 -268 -551 -471q-414 -301 -647 -301q-14 0 -29 2q-315 27 -315 324zM1577 594h121q43 -2 106 -2q59 116 297 493zM2324 1489q0 10 9 16l215 166q20 18 36.5 18.5 t16.5 -24.5t-16 -41q-18 -14 -125 -79.5t-121.5 -65.5t-14.5 10z" />
<glyph unicode="&#xc2;" horiz-adv-x="2088" d="M-2 86q0 176 111 373q147 262 403 447.5t459 185.5t203 -150q0 -100 -61.5 -223t-125.5 -156q-6 -2 -13 -2t-7 4l67 111q70 109 70 190.5t-36 132t-114 50.5q-160 0 -382 -178.5t-337.5 -438.5t-115.5 -405q0 -219 223 -220q213 0 578 275q162 121 526 457 q-72 -4 -133 -15q-131 -25 -123 8q8 76 78 76q135 -16 227 -16q176 162 526 530q236 248 287 248q23 0 23 -35t-18.5 -108.5t-41.5 -89.5q-47 -33 -88 -89.5t-117 -211t-129 -250.5l199 4q74 0 74 -10q0 -27 -299 -48q-190 -373 -191 -507q0 -94 60 -95q23 0 56.5 28 t40.5 28t7 -11q-10 -37 -62.5 -61.5t-88 -24.5t-56.5 5q-49 18 -49 118q0 207 158 527l-246 -7q-274 -268 -551 -471q-414 -301 -647 -301q-14 0 -29 2q-315 27 -315 324zM1577 594h121q43 -2 106 -2q59 116 297 493zM2052 1475q0 6 21 24q156 94 202 135q61 51 74 52 q31 0 117 -95.5t89 -106.5t3 -16q0 -20 -16.5 -20t-88 65.5t-116.5 92.5q-12 -8 -68.5 -43t-106 -68t-65.5 -35q-45 -12 -45 15z" />
<glyph unicode="&#xc3;" horiz-adv-x="2088" d="M-2 86q0 176 111 373q147 262 403 447.5t459 185.5t203 -150q0 -100 -61.5 -223t-125.5 -156q-6 -2 -13 -2t-7 4l67 111q70 109 70 190.5t-36 132t-114 50.5q-160 0 -382 -178.5t-337.5 -438.5t-115.5 -405q0 -219 223 -220q213 0 578 275q162 121 526 457 q-72 -4 -133 -15q-131 -25 -123 8q8 76 78 76q135 -16 227 -16q176 162 526 530q236 248 287 248q23 0 23 -35t-18.5 -108.5t-41.5 -89.5q-47 -33 -88 -89.5t-117 -211t-129 -250.5l199 4q74 0 74 -10q0 -27 -299 -48q-190 -373 -191 -507q0 -94 60 -95q23 0 56.5 28 t40.5 28t7 -11q-10 -37 -62.5 -61.5t-88 -24.5t-56.5 5q-49 18 -49 118q0 207 158 527l-246 -7q-274 -268 -551 -471q-414 -301 -647 -301q-14 0 -29 2q-315 27 -315 324zM1577 594h121q43 -2 106 -2q59 116 297 493zM2163 1540q0 33 88 84q33 20 68.5 20.5t100 -21 t106.5 -21.5t79 43q12 -1 12 -9q0 -31 -82 -86q-27 -16 -60.5 -16t-100 27.5t-100 27.5t-66.5 -26.5t-43 -26.5q-2 2 -2 4z" />
<glyph unicode="&#xc4;" horiz-adv-x="2088" d="M-2 86q0 176 111 373q147 262 403 447.5t459 185.5t203 -150q0 -100 -61.5 -223t-125.5 -156q-6 -2 -13 -2t-7 4l67 111q70 109 70 190.5t-36 132t-114 50.5q-160 0 -382 -178.5t-337.5 -438.5t-115.5 -405q0 -219 223 -220q213 0 578 275q162 121 526 457 q-72 -4 -133 -15q-131 -25 -123 8q8 76 78 76q135 -16 227 -16q176 162 526 530q236 248 287 248q23 0 23 -35t-18.5 -108.5t-41.5 -89.5q-47 -33 -88 -89.5t-117 -211t-129 -250.5l199 4q74 0 74 -10q0 -27 -299 -48q-190 -373 -191 -507q0 -94 60 -95q23 0 56.5 28 t40.5 28t7 -11q-10 -37 -62.5 -61.5t-88 -24.5t-56.5 5q-49 18 -49 118q0 207 158 527l-246 -7q-274 -268 -551 -471q-414 -301 -647 -301q-14 0 -29 2q-315 27 -315 324zM1577 594h121q43 -2 106 -2q59 116 297 493zM2200 1575.5q0 23.5 59 66.5q61 43 94 44q2 0 6 -3 q-2 0 -28 -36l-33 -82q-24 -56 -55 -56q-14 0 -28.5 21.5t-14.5 45zM2359 1683h2v-2zM2447 1575.5q0 23.5 60 66.5q61 43 94 44l6 -3q-2 0 -29 -36l-32 -82q-25 -55 -56 -56q-14 0 -28.5 21.5t-14.5 45zM2607 1683h2v-2z" />
<glyph unicode="&#xc5;" horiz-adv-x="2088" d="M-2 86q0 176 111 373q147 262 403 447.5t459 185.5t203 -150q0 -100 -61.5 -223t-125.5 -156q-6 -2 -13 -2t-7 4l67 111q70 109 70 190.5t-36 132t-114 50.5q-160 0 -382 -178.5t-337.5 -438.5t-115.5 -405q0 -219 223 -220q213 0 578 275q161 121 526 457 q-72 -4 -133 -15q-131 -25 -123 8q8 76 78 76q135 -16 227 -16q176 162 526 530q178 188 252 234q-33 18 -32.5 66t23 97.5t56.5 59.5q35 66 105 66q37 0 62.5 -32t25.5 -90.5t-58.5 -117.5t-125.5 -59q2 -6 2 -26t-18.5 -93.5t-41.5 -89.5q-47 -33 -88 -89.5t-116.5 -211 t-129.5 -250.5l199 4q74 0 74 -10q0 -27 -299 -48q-190 -373 -191 -507q0 -94 60 -95q23 0 56.5 28t40.5 28t7 -11q-10 -37 -62.5 -61.5t-88 -24.5t-56.5 5q-49 18 -49 118q0 207 158 527l-246 -7q-274 -268 -551 -471q-414 -301 -647 -301q-14 0 -29 2q-315 27 -315 324z M1577 594h121q43 -2 106 -2q59 116 297 493zM2316 1425q0 -41 31 -41q47 0 82 48.5t35 112t-45 63.5q-25 0 -60 -27l23 -12q-2 -6 -34 -54.5t-32 -89.5z" />
<glyph unicode="&#xc6;" horiz-adv-x="2867" d="M-2 86q0 176 111 373q147 262 403 447.5t459 185.5t203 -150q0 -100 -61.5 -223t-125.5 -156q-6 -2 -13 -2t-7 4l67 111q70 109 70 190.5t-36 132t-114 50.5q-160 0 -382 -178.5t-337.5 -438.5t-115.5 -405q0 -219 223 -220q213 0 578 275q162 121 526 457 q-72 -4 -133 -15q-131 -25 -123 8q8 76 78 76q135 -16 227 -16q176 162 526 530q236 248 287 248q23 0 22.5 -39t-14.5 -90q229 119 467 119q117 0 187.5 -38t70.5 -117t-58 -133t-121.5 -54t-63.5 31q0 18 26 18l41 -6q41 0 75 44t34 91q0 70 -80 102q-51 20 -96 20.5 t-64 -1.5q-174 -10 -344 -123q-197 -129 -197 -291q0 -59 41 -110q131 41 250 41q201 0 201 -76q0 -16 -12 -37q-49 -76 -179 -76q-84 0 -171 30t-134 62q-55 -16 -225 -98l-27 -53q-127 -248 -127 -432q0 -80 31 -136q49 -86 146 -100q37 -6 88 -6t144 18.5t198.5 70.5 t171.5 112q162 143 161 301q0 125 -120 125q-145 0 -334 -156q-47 -39 -80 -98.5t-33 -116.5t58 -72q20 -8 20 -20q0 -20 -41 -17q-98 2 -98 129t129 238q176 152 372 152q88 0 145.5 -45.5t57.5 -133.5q0 -199 -211 -358q-74 -55 -184 -100q-166 -68 -344 -68 q-63 0 -123 10q-109 18 -182 103q-82 92 -82 247q0 72 26 164q29 96 60 142l-246 -7q-274 -268 -551 -471q-414 -301 -647 -301q-14 0 -29 2q-315 27 -315 324zM1577 594h121q43 -2 106 -2q59 116 297 493zM2005 715q57 25 149 55q-49 53 -61 119q-82 -162 -88 -174z M2269 760q86 -70 202 -70t116 64q0 29 -102.5 29t-215.5 -23z" />
<glyph unicode="&#xc7;" horiz-adv-x="1486" d="M63.5 317.5q-0.5 313.5 307.5 636.5q170 178 403.5 277.5t442.5 99.5q111 0 192 -26q223 -70 223 -281q0 -129 -76 -223q-188 -231 -448 -232q-123 0 -207 56.5t-84 142.5q0 109 141 217q25 18 37.5 18.5t12.5 -8.5q0 -20 -33 -32q-115 -92 -115 -187q0 -68 61.5 -114 t153.5 -46q201 0 379 193q92 100 92 231t-98 195q-82 57 -221 57q-201 0 -404 -100q-250 -121 -451.5 -376t-201.5 -490q0 -186 127 -287.5t315 -101.5q215 0 422 104q158 82 273 209q33 37 51 37q12 0 12 -21.5t-22 -44.5q-109 -115 -314 -221q-252 -133 -493 -133 q-86 0 -164 18q-29 -39 -29 -86q0 -23 59.5 -100.5t59.5 -132.5q0 -94 -99.5 -147.5t-205.5 -53.5q-18 0 -19 21q0 12 19 16q98 16 147 23q72 23 72 118q0 29 -53.5 105t-53.5 114q0 88 52 140q-262 102 -262.5 415.5z" />
<glyph unicode="&#xc8;" horiz-adv-x="1415" d="M6 158q0 84 53 168q188 299 643 444q-68 78 -67.5 166t43.5 147q84 115 252 189q201 88 401 88q117 0 187.5 -38t70.5 -117t-58 -133t-121.5 -54t-63.5 31q0 18 26 18l41 -6q41 0 75 44t34 91q0 70 -80 102q-51 20 -96.5 20.5t-63.5 -1.5q-176 -10 -344 -123 q-197 -129 -197 -291q0 -59 41 -110q131 41 250 41q201 0 201 -76q0 -16 -12 -37q-49 -76 -179 -76q-84 0 -172 30t-133 62q-190 -55 -338.5 -169.5t-222.5 -260.5q-39 -78 -39 -151q0 -115 95.5 -186.5t279.5 -71.5q51 0 106 6q326 35 519 209q162 143 161 301 q0 125 -120 125q-145 0 -334 -156q-47 -39 -80 -98.5t-33 -116.5t57 -72q20 -8 21 -20q0 -20 -41 -17q-98 2 -98 129t129 238q176 152 372 152q147 0 187 -93q16 -43 16 -86q0 -190 -211 -358q-252 -205 -639 -205q-240 0 -379 89t-139 233zM817 760q88 -70 203 -70t115 64 q0 29 -102.5 29t-215.5 -23zM1184 1641.5q0 25.5 18 25.5q29 0 250 -184q8 -6 8 -15.5t-12 -9.5t-120.5 65.5t-126 79t-17.5 39z" />
<glyph unicode="&#xc9;" horiz-adv-x="1415" d="M6 158q0 84 53 168q188 299 643 444q-68 78 -67.5 166t43.5 147q84 115 252 189q201 88 401 88q117 0 187.5 -38t70.5 -117t-58 -133t-121.5 -54t-63.5 31q0 18 26 18l41 -6q41 0 75 44t34 91q0 70 -80 102q-51 20 -96.5 20.5t-63.5 -1.5q-176 -10 -344 -123 q-197 -129 -197 -291q0 -59 41 -110q131 41 250 41q201 0 201 -76q0 -16 -12 -37q-49 -76 -179 -76q-84 0 -172 30t-133 62q-190 -55 -338.5 -169.5t-222.5 -260.5q-39 -78 -39 -151q0 -115 95.5 -186.5t279.5 -71.5q51 0 106 6q326 35 519 209q162 143 161 301 q0 125 -120 125q-145 0 -334 -156q-47 -39 -80 -98.5t-33 -116.5t57 -72q20 -8 21 -20q0 -20 -41 -17q-98 2 -98 129t129 238q176 152 372 152q147 0 187 -93q16 -43 16 -86q0 -190 -211 -358q-252 -205 -639 -205q-240 0 -379 89t-139 233zM817 760q88 -70 203 -70t115 64 q0 29 -102.5 29t-215.5 -23zM1323 1489q0 10 8 16l215 166q23 18 35 19q18 0 18 -25t-16 -41q-18 -14 -124.5 -79.5t-121 -65.5t-14.5 10z" />
<glyph unicode="&#xca;" horiz-adv-x="1415" d="M6 158q0 84 53 168q188 299 643 444q-68 78 -67.5 166t43.5 147q84 115 252 189q201 88 401 88q117 0 187.5 -38t70.5 -117t-58 -133t-121.5 -54t-63.5 31q0 18 26 18l41 -6q41 0 75 44t34 91q0 70 -80 102q-51 20 -96.5 20.5t-63.5 -1.5q-176 -10 -344 -123 q-197 -129 -197 -291q0 -59 41 -110q131 41 250 41q201 0 201 -76q0 -16 -12 -37q-49 -76 -179 -76q-84 0 -172 30t-133 62q-190 -55 -338.5 -169.5t-222.5 -260.5q-39 -78 -39 -151q0 -115 95.5 -186.5t279.5 -71.5q51 0 106 6q326 35 519 209q162 143 161 301 q0 125 -120 125q-145 0 -334 -156q-47 -39 -80 -98.5t-33 -116.5t57 -72q20 -8 21 -20q0 -20 -41 -17q-98 2 -98 129t129 238q176 152 372 152q147 0 187 -93q16 -43 16 -86q0 -190 -211 -358q-252 -205 -639 -205q-240 0 -379 89t-139 233zM817 760q88 -70 203 -70t115 64 q0 29 -102.5 29t-215.5 -23zM1182 1479q0 6 20 24q156 94 203 135q61 51 74 52q31 0 116.5 -95.5t89 -106.5t3.5 -15q0 -20 -16.5 -20.5t-88.5 65t-117 92.5q-12 -8 -68.5 -43t-105.5 -68t-65 -35q-45 -12 -45 15z" />
<glyph unicode="&#xcb;" horiz-adv-x="1415" d="M6 158q0 84 53 168q188 299 643 444q-68 78 -67.5 166t43.5 147q84 115 252 189q201 88 401 88q117 0 187.5 -38t70.5 -117t-58 -133t-121.5 -54t-63.5 31q0 18 26 18l41 -6q41 0 75 44t34 91q0 70 -80 102q-51 20 -96.5 20.5t-63.5 -1.5q-176 -10 -344 -123 q-197 -129 -197 -291q0 -59 41 -110q131 41 250 41q201 0 201 -76q0 -16 -12 -37q-49 -76 -179 -76q-84 0 -172 30t-133 62q-190 -55 -338.5 -169.5t-222.5 -260.5q-39 -78 -39 -151q0 -115 95.5 -186.5t279.5 -71.5q51 0 106 6q326 35 519 209q162 143 161 301 q0 125 -120 125q-145 0 -334 -156q-47 -39 -80 -98.5t-33 -116.5t57 -72q20 -8 21 -20q0 -20 -41 -17q-98 2 -98 129t129 238q176 152 372 152q147 0 187 -93q16 -43 16 -86q0 -190 -211 -358q-252 -205 -639 -205q-240 0 -379 89t-139 233zM817 760q88 -70 203 -70t115 64 q0 29 -102.5 29t-215.5 -23zM1270 1516.5q0 23.5 59 66.5q61 43 94 43l7 -2q-2 0 -29 -37l-33 -82q-25 -55 -55 -55q-14 0 -28.5 21.5t-14.5 45zM1430 1624h2v-2q0 2 -2 2zM1518 1516.5q0 23.5 59 66.5q61 43 94 43l6 -2q-2 0 -28 -37l-33 -82q-25 -55 -55 -55 q-14 0 -28.5 21.5t-14.5 45zM1677 1624h2v-2z" />
<glyph unicode="&#xcc;" horiz-adv-x="1179" d="M43 236q0 311 166 501q139 164 319 164q47 0 97 -16q121 -47 120.5 -200t-125 -318.5t-255.5 -165.5q-147 0 -148 159q0 45 19.5 94.5t44.5 49.5q18 0 18 -19q0 -10 -18.5 -51t-18.5 -72.5t34 -59.5t71 -28q121 0 224 148.5t103 290.5q0 109 -78 143q-27 10 -55 10 q-145 0 -291 -200q-141 -203 -141 -445q0 -133 57 -217q59 -86 164 -86q270 0 705 735q-225 68 -226 267q0 264 269 421q170 98 329 99q125 0 226 -41q141 -55 141 -168q0 -25 -11 -47.5t-24 -22.5q-27 27 -63 27q-174 0 -477 -518q16 -2 34 -2q70 0 139.5 41t69.5 102 l-14 55q0 16 16 17q6 0 17 -6q47 -35 47 -92.5t-74 -112t-186 -54.5q-35 0 -70 7q-141 -260 -344 -480q-270 -287 -492 -286q-319 0 -319 377zM938 880.5q0 -147.5 152 -175.5q113 184 291 367t296 183q31 0 54 -14q-2 57 -80 100q-70 41 -174.5 41t-240.5 -60t-217 -177 t-81 -264.5zM1501 1664q0 26 21 26q25 -1 250 -185q8 -6 8 -15t-12.5 -9t-121 65.5t-127 78.5t-18.5 39z" />
<glyph unicode="&#xcd;" horiz-adv-x="1179" d="M43 236q0 311 166 501q139 164 319 164q47 0 97 -16q121 -47 120.5 -200t-125 -318.5t-255.5 -165.5q-147 0 -148 159q0 45 19.5 94.5t44.5 49.5q18 0 18 -19q0 -10 -18.5 -51t-18.5 -72.5t34 -59.5t71 -28q121 0 224 148.5t103 290.5q0 109 -78 143q-27 10 -55 10 q-145 0 -291 -200q-141 -203 -141 -445q0 -133 57 -217q59 -86 164 -86q270 0 705 735q-225 68 -226 267q0 264 269 421q170 98 329 99q125 0 226 -41q141 -55 141 -168q0 -25 -11 -47.5t-24 -22.5q-27 27 -63 27q-174 0 -477 -518q16 -2 34 -2q70 0 139.5 41t69.5 102 l-14 55q0 16 16 17q6 0 17 -6q47 -35 47 -92.5t-74 -112t-186 -54.5q-35 0 -70 7q-141 -260 -344 -480q-270 -287 -492 -286q-319 0 -319 377zM938 880.5q0 -147.5 152 -175.5q113 184 291 367t296 183q31 0 54 -14q-2 57 -80 100q-70 41 -174.5 41t-240.5 -60t-217 -177 t-81 -264.5zM1563 1489q0 10 8 16l215 166q20 18 36.5 18.5t16.5 -24.5t-16 -41q-18 -14 -125 -79.5t-121 -65.5t-14 10z" />
<glyph unicode="&#xce;" horiz-adv-x="1179" d="M43 236q0 311 166 501q139 164 319 164q47 0 97 -16q121 -47 120.5 -200t-125 -318.5t-255.5 -165.5q-147 0 -148 159q0 45 19.5 94.5t44.5 49.5q18 0 18 -19q0 -10 -18.5 -51t-18.5 -72.5t34 -59.5t71 -28q121 0 224 148.5t103 290.5q0 109 -78 143q-27 10 -55 10 q-145 0 -291 -200q-141 -203 -141 -445q0 -133 57 -217q59 -86 164 -86q270 0 705 735q-225 68 -226 267q0 264 269 421q170 98 329 99q125 0 226 -41q141 -55 141 -168q0 -25 -11 -47.5t-24 -22.5q-27 27 -63 27q-174 0 -477 -518q16 -2 34 -2q70 0 139.5 41t69.5 102 l-14 55q0 16 16 17q6 0 17 -6q47 -35 47 -92.5t-74 -112t-186 -54.5q-35 0 -70 7q-141 -260 -344 -480q-270 -287 -492 -286q-319 0 -319 377zM938 880.5q0 -147.5 152 -175.5q113 184 291 367t296 183q31 0 54 -14q-2 57 -80 100q-70 41 -174.5 41t-240.5 -60t-217 -177 t-81 -264.5zM1348 1479q0 6 20 24q156 94 203 135q61 51 74 52q31 0 116.5 -95.5t88.5 -106.5t3 -15q0 -20 -16 -20.5t-88 65t-117 92.5q-12 -8 -68.5 -43t-105.5 -68t-65 -35q-45 -12 -45 15z" />
<glyph unicode="&#xcf;" horiz-adv-x="1179" d="M43 236q0 311 166 501q139 164 319 164q47 0 97 -16q121 -47 120.5 -200t-125 -318.5t-255.5 -165.5q-147 0 -148 159q0 45 19.5 94.5t44.5 49.5q18 0 18 -19q0 -10 -18.5 -51t-18.5 -72.5t34 -59.5t71 -28q121 0 224 148.5t103 290.5q0 109 -78 143q-27 10 -55 10 q-145 0 -291 -200q-141 -203 -141 -445q0 -133 57 -217q59 -86 164 -86q270 0 705 735q-225 68 -226 267q0 264 269 421q170 98 329 99q125 0 226 -41q141 -55 141 -168q0 -25 -11 -47.5t-24 -22.5q-27 27 -63 27q-174 0 -477 -518q16 -2 34 -2q70 0 139.5 41t69.5 102 l-14 55q0 16 16 17q6 0 17 -6q47 -35 47 -92.5t-74 -112t-186 -54.5q-35 0 -70 7q-141 -260 -344 -480q-270 -287 -492 -286q-319 0 -319 377zM938 880.5q0 -147.5 152 -175.5q113 184 291 367t296 183q31 0 54 -14q-2 57 -80 100q-70 41 -174.5 41t-240.5 -60t-217 -177 t-81 -264.5zM1391 1580q0 24 59 67q61 43 94 43l6 -2q-2 0 -28 -37l-33 -82q-25 -55 -55 -56q-14 0 -28.5 21.5t-14.5 45.5zM1550 1688h2v-2zM1638 1580q0 24 60 67q61 43 94 43q2 0 6 -2q-2 0 -29 -37l-32 -82q-25 -56 -56 -56q-14 0 -28.5 21.5t-14.5 45.5zM1798 1688h2 v-2z" />
<glyph unicode="&#xd0;" horiz-adv-x="1886" d="M31 51q0 98 83 295t158 197q39 0 67 -153.5t56 -223.5q92 94 256 303q-25 0 -55 6q-66 12 -66 43q0 20 17.5 34.5t30 14.5t24.5 2h129l68 88q332 436 440 478q37 14 76 14t64.5 -16.5t25.5 -40.5q0 -35 -59 -41q-72 -39 -222 -189q-141 -137 -256 -295q135 0 207 6 q2 -2 2 -6q0 -37 -264 -73q-174 -231 -379 -402q115 -170 361 -170q27 0 79 4q569 53 807 494q96 176 96.5 348t-124.5 309q-100 113 -218 139.5t-241 26.5q-315 0 -582 -145q-281 -154 -280 -344q0 -51 27.5 -84t37.5 -37h-12q-53 10 -94 53q-45 53 -45 113q0 205 257 352 t603 147q160 0 328 -36.5t305 -176.5q158 -164 157 -370q0 -154 -90 -318q-156 -283 -465 -413q-248 -104 -534.5 -104.5t-423.5 171.5q-180 -139 -264 -139q-45 0 -66.5 44t-21.5 95zM104 59q0 -63 25 -110q88 39 213 162q-59 98 -74.5 154.5t-21.5 148.5 q-142 -203 -142 -355zM397 633q2 0 4 2q0 -4 -1 -4t-3 2z" />
<glyph unicode="&#xd1;" horiz-adv-x="1894" d="M4 391q0 319 438 672q111 88 288 147.5t321.5 59.5t204 -54.5t59.5 -150.5q0 -233 -283 -662q63 80 207 203q510 428 877 563q18 8 41 9q78 0 98 -88q10 -35 -98 -146q-256 -262 -434.5 -573.5t-178.5 -446.5q0 -33 12.5 -46t39 -8t111.5 42t112 43q10 -4 10 -10 q0 -31 -107.5 -86.5t-161 -55.5t-67.5 19q-37 51 -37 129q0 176 189 506q121 207 372 557q-272 -25 -704 -430q-345 -326 -490 -559q-49 -76 -49 -99.5t19 -31.5q0 -4 -34 -26t-93.5 -22t-59.5 31q0 53 202 353t265 415q139 250 139 395q0 57 -22 107q-35 74 -168 74 q-244 0 -518 -224q-209 -172 -322 -356q-102 -174 -102 -311q0 -197 182 -201h17q242 0 366 170q49 68 49 115t-22 59q-2 2 -2 8t12 6q53 0 53 -69q0 -43 -41 -117t-148.5 -139.5t-244.5 -65.5t-217 80t-80 215zM1636 1403q0 33 88 84q33 20 69 20t100.5 -21.5t106.5 -21.5 t79 43q12 0 12 -8q0 -31 -82 -86q-27 -16 -60.5 -16t-100 27.5t-100.5 27.5t-66.5 -26.5t-43.5 -26.5q-2 2 -2 4z" />
<glyph unicode="&#xd2;" horiz-adv-x="1605" d="M49 245.5q0 157.5 84 344.5q106 236 416 459q356 254 737 254q205 0 311.5 -80t106.5 -199q0 -74 -57 -182q16 -56 16 -113q0 -256 -262 -489q-403 -360 -903 -361q-55 0 -86 2q-164 8 -263.5 107.5t-99.5 257zM160 207q0 -270 272 -285q29 -2 57 -2q403 0 768 326 q262 233 283 444q-106 -117 -369 -278l-16 -4q-2 0 -2 2q0 8 55 55l115 94q147 129 215 211q-14 115 -103 191.5t-204 111.5q-57 14 -177 18.5t-120 8.5t4 8q94 31 181 31t200 -27q215 -51 301 -209q20 49 20 109.5t-45 124.5q-88 123 -311 123q-309 0 -583.5 -191.5 t-428.5 -482.5q-113 -211 -112 -379zM1348 1623q0 26 20 26q25 -1 250 -185q8 -6 8 -15t-12 -9t-121 65.5t-127 78.5t-18 39z" />
<glyph unicode="&#xd3;" horiz-adv-x="1605" d="M49 245.5q0 157.5 84 344.5q106 236 416 459q356 254 737 254q205 0 311.5 -80t106.5 -199q0 -74 -57 -182q16 -56 16 -113q0 -256 -262 -489q-403 -360 -903 -361q-55 0 -86 2q-164 8 -263.5 107.5t-99.5 257zM160 207q0 -270 272 -285q29 -2 57 -2q403 0 768 326 q262 233 283 444q-106 -117 -369 -278l-16 -4q-2 0 -2 2q0 8 55 55l115 94q147 129 215 211q-14 115 -103 191.5t-204 111.5q-57 14 -177 18.5t-120 8.5t4 8q94 31 181 31t200 -27q215 -51 301 -209q20 49 20 109.5t-45 124.5q-88 123 -311 123q-309 0 -583.5 -191.5 t-428.5 -482.5q-113 -211 -112 -379zM1364 1448q0 10 8 16l215 166q23 18 35 19q18 0 18 -25t-16 -41q-18 -14 -124.5 -79.5t-121 -65.5t-14.5 10z" />
<glyph unicode="&#xd4;" horiz-adv-x="1605" d="M49 245.5q0 157.5 84 344.5q106 236 416 459q356 254 737 254q205 0 311.5 -80t106.5 -199q0 -74 -57 -182q16 -56 16 -113q0 -256 -262 -489q-403 -360 -903 -361q-55 0 -86 2q-164 8 -263.5 107.5t-99.5 257zM160 207q0 -270 272 -285q29 -2 57 -2q403 0 768 326 q262 233 283 444q-106 -117 -369 -278l-16 -4q-2 0 -2 2q0 8 55 55l115 94q147 129 215 211q-14 115 -103 191.5t-204 111.5q-57 14 -177 18.5t-120 8.5t4 8q94 31 181 31t200 -27q215 -51 301 -209q20 49 20 109.5t-45 124.5q-88 123 -311 123q-309 0 -583.5 -191.5 t-428.5 -482.5q-113 -211 -112 -379zM1167 1413q0 8 23 27q223 137 319 219l15 6q25 -2 123 -106q86 -98 86 -122t-19 -24q-23 0 -89 57.5t-116 110.5q-12 -8 -68.5 -43t-128 -82t-134.5 -51q-10 2 -11 8z" />
<glyph unicode="&#xd5;" horiz-adv-x="1605" d="M49 245.5q0 157.5 84 344.5q106 236 416 459q356 254 737 254q205 0 311.5 -80t106.5 -199q0 -74 -57 -182q16 -56 16 -113q0 -256 -262 -489q-403 -360 -903 -361q-55 0 -86 2q-164 8 -263.5 107.5t-99.5 257zM160 207q0 -270 272 -285q29 -2 57 -2q403 0 768 326 q262 233 283 444q-106 -117 -369 -278l-16 -4q-2 0 -2 2q0 8 55 55l115 94q147 129 215 211q-14 115 -103 191.5t-204 111.5q-57 14 -177 18.5t-120 8.5t4 8q94 31 181 31t200 -27q215 -51 301 -209q20 49 20 109.5t-45 124.5q-88 123 -311 123q-309 0 -583.5 -191.5 t-428.5 -482.5q-113 -211 -112 -379zM1270 1403q0 33 88 84q33 20 68.5 20t100 -21.5t106.5 -21.5t79 43q12 0 12 -8q0 -31 -82 -86q-27 -16 -60.5 -16t-100 27.5t-100 27.5t-66.5 -26.5t-43 -26.5q-2 2 -2 4z" />
<glyph unicode="&#xd6;" horiz-adv-x="1605" d="M49 245.5q0 157.5 84 344.5q106 236 416 459q356 254 737 254q205 0 311.5 -80t106.5 -199q0 -74 -57 -182q16 -56 16 -113q0 -256 -262 -489q-403 -360 -903 -361q-55 0 -86 2q-164 8 -263.5 107.5t-99.5 257zM160 207q0 -270 272 -285q29 -2 57 -2q403 0 768 326 q262 233 283 444q-106 -117 -369 -278l-16 -4q-2 0 -2 2q0 8 55 55l115 94q147 129 215 211q-14 115 -103 191.5t-204 111.5q-57 14 -177 18.5t-120 8.5t4 8q94 31 181 31t200 -27q215 -51 301 -209q20 49 20 109.5t-45 124.5q-88 123 -311 123q-309 0 -583.5 -191.5 t-428.5 -482.5q-113 -211 -112 -379zM1262 1506.5q0 23.5 59 66.5q61 43 94 43q2 0 6 -2q-2 0 -28 -37l-33 -82q-24 -55 -55 -55q-14 0 -28.5 21.5t-14.5 45zM1421 1614h2v-2zM1509 1506.5q0 23.5 60 66.5q61 43 94 43l6 -2q-2 0 -29 -37l-32 -82q-25 -55 -56 -55 q-14 0 -28.5 21.5t-14.5 45zM1669 1614h2v-2z" />
<glyph unicode="&#xd7;" horiz-adv-x="581" d="M43 166q10 20 105.5 110.5t119.5 106.5l-20 115q-12 47 -30.5 69.5t-30 25.5t-11.5 7q0 12 80 12l27 2q20 0 27 -23.5t28 -166.5q25 25 126 106.5t105 81.5q27 0 27 -24q0 -6 -8 -15l-244 -186q31 -186 121 -186q10 0 57 14q6 0 6 -4q0 -14 -51 -32.5t-88 -18.5t-62.5 41 t-50.5 145q-16 -20 -106 -105t-108.5 -85t-18.5 10z" />
<glyph unicode="&#xd8;" horiz-adv-x="1605" d="M49 246.5q0 156.5 84 343.5q106 236 416 459q356 254 737 254q47 0 68 -3q110 130 132.5 130t36 -13.5t13.5 -28t-18 -36.5l-60 -68q86 -23 141 -63q104 -78 105 -197q0 -74 -57 -182q16 -55 16 -113q0 -256 -262 -489q-403 -360 -903 -361h-45q-4 -14 -4 -48t15 -41 t7 -23q-14 -20 -43 -21q-35 0 -35 49t8 88q-160 10 -256 108.5t-96 255zM160 207q0 -258 252 -283q4 18 26 80q63 174 535 807q170 223 207 270q-39 6 -142.5 10.5t-103.5 8.5t4 8q94 31 162.5 31t118.5 -9q20 29 56 73t44 54q-10 2 -35 3q-309 0 -583.5 -191.5 t-428.5 -482.5q-113 -211 -112 -379zM467 -78h25q403 0 765 324q262 233 283 444q-106 -117 -369 -278l-16 -4q-2 0 -2 2q0 8 55 55l115 94q147 129 215 211q-14 115 -111 197q-68 59 -155 92q-135 -168 -361 -467q-367 -487 -444 -670zM1317 1112h2q215 -51 301 -209 q20 49 20 109.5t-51 132.5t-164 98q-14 -16 -108 -131z" />
<glyph unicode="&#xd9;" horiz-adv-x="1640" d="M29 381q0 322 606 756q123 84 291 150.5t305 66.5q70 0 134.5 -27t64.5 -89t-73 -178t-227.5 -326t-262 -392t-107.5 -254q0 -35 28 -35q55 0 207 115q360 274 848 891q78 98 125 98q18 0 19 -18q0 -8 -7 -21q2 -6 2 -12q0 -43 -49 -117l-241 -342q-147 -213 -260 -403.5 t-105 -223.5l37 13q102 57 178 133q27 20 33 20l4 -4q0 -18 -55 -78q-143 -125 -205 -124.5t-62 39t110 241.5t351 559q-41 -49 -129 -145q-504 -516 -604 -596q-149 -117 -278 -117q-88 0 -89 62q0 106 271.5 488t329.5 470q125 193 124 262q0 35 -26 43q-49 20 -115 21 q-225 0 -575 -240q-229 -160 -380 -374t-151 -353q0 -100 82 -115q33 -6 66 -6q104 0 215 68q55 33 139 108l37 13q-39 -74 -163 -150t-255 -76q-31 0 -72 8.5t-78.5 58.5t-37.5 132zM1505 1492q0 26 21 26q31 0 250 -185q8 -6 8 -12q0 -12 -12.5 -12t-112.5 60.5t-127 78.5 t-27 44z" />
<glyph unicode="&#xda;" horiz-adv-x="1640" d="M29 381q0 322 606 756q123 84 291 150.5t305 66.5q70 0 134.5 -27t64.5 -89t-73 -178t-227.5 -326t-262 -392t-107.5 -254q0 -35 28 -35q55 0 207 115q360 274 848 891q78 98 125 98q18 0 19 -18q0 -8 -7 -21q2 -6 2 -12q0 -43 -49 -117l-241 -342q-147 -213 -260 -403.5 t-105 -223.5l37 13q102 57 178 133q27 20 33 20l4 -4q0 -18 -55 -78q-143 -125 -205 -124.5t-62 39t110 241.5t351 559q-41 -49 -129 -145q-504 -516 -604 -596q-149 -117 -278 -117q-88 0 -89 62q0 106 271.5 488t329.5 470q125 193 124 262q0 35 -26 43q-49 20 -115 21 q-225 0 -575 -240q-229 -160 -380 -374t-151 -353q0 -100 82 -115q33 -6 66 -6q104 0 215 68q55 33 139 108l37 13q-39 -74 -163 -150t-255 -76q-31 0 -72 8.5t-78.5 58.5t-37.5 132zM1622 1280q0 6 6 12l215 166q20 18 36.5 18.5t16.5 -23t-20.5 -43t-123.5 -82 t-116.5 -62.5t-13.5 14z" />
<glyph unicode="&#xdb;" horiz-adv-x="1640" d="M29 381q0 322 606 756q123 88 291 152.5t305 64.5q70 0 134.5 -27t64.5 -89t-73 -178t-227.5 -326t-262 -392t-107.5 -254q0 -35 28 -35q55 0 207 115q360 274 848 891q78 98 125 98q18 0 19 -18q0 -8 -7 -21q2 -6 2 -12q0 -43 -49 -117l-241 -342q-147 -213 -260 -403.5 t-105 -223.5l37 13q102 57 178 133q27 20 33 20l4 -4q0 -18 -55 -78q-143 -125 -205 -124.5t-62 39t110 241.5t351 559q-41 -49 -129 -145q-504 -516 -604 -596q-149 -117 -278 -117q-88 0 -89 62q0 106 271.5 488t329.5 470q125 193 124 262q0 35 -26 43q-49 20 -115 21 q-225 0 -575 -240q-229 -160 -380 -374t-151 -353q0 -100 82 -115q33 -6 66 -6q104 0 215 68q55 33 139 108l37 13q-39 -74 -163 -150t-255 -76q-31 0 -72 8.5t-78.5 58.5t-37.5 132zM1550 1401q0 6 21 24q156 94 203 136q61 51 73 51q31 0 117 -95.5t89 -106.5t3 -15 q0 -20 -16.5 -20.5t-88 65t-116.5 92.5q-12 -8 -68.5 -43t-106 -68t-65.5 -35q-45 -12 -45 15z" />
<glyph unicode="&#xdc;" horiz-adv-x="1640" d="M29 381q0 322 606 756q123 88 291 152.5t305 64.5q70 0 134.5 -27t64.5 -89t-73 -178t-227.5 -326t-262 -392t-107.5 -254q0 -35 28 -35q55 0 207 115q360 274 848 891q78 98 125 98q18 0 19 -18q0 -8 -7 -21q2 -6 2 -12q0 -43 -49 -117l-241 -342q-147 -213 -260 -403.5 t-105 -223.5l37 13q102 57 178 133q27 20 33 20l4 -4q0 -18 -55 -78q-143 -125 -205 -124.5t-62 39t110 241.5t351 559q-41 -49 -129 -145q-504 -516 -604 -596q-149 -117 -278 -117q-88 0 -89 62q0 106 271.5 488t329.5 470q125 193 124 262q0 35 -26 43q-49 20 -115 21 q-225 0 -575 -240q-229 -160 -380 -374t-151 -353q0 -100 82 -115q33 -6 66 -6q104 0 215 68q55 33 139 108l37 13q-39 -74 -163 -150t-255 -76q-31 0 -72 8.5t-78.5 58.5t-37.5 132zM1561 1379.5q0 23.5 59 66.5q61 43 94 43q2 0 6 -2q-2 0 -28 -37l-33 -82 q-24 -55 -55 -55q-14 0 -28.5 21.5t-14.5 45zM1720 1487h2v-2q0 2 -2 2zM1808 1379.5q0 23.5 60 66.5q61 43 94 43l6 -2q-2 0 -29 -37l-32 -82q-25 -55 -56 -55q-14 0 -28.5 21.5t-14.5 45zM1968 1487h2v-2q0 2 -2 2z" />
<glyph unicode="&#xdd;" horiz-adv-x="1806" d="M29 561q0 279 407 569q119 86 313.5 156t314.5 70t182.5 -38t62.5 -121t-115 -258t-363 -476q-51 -59 -94 -154.5t-43 -152t44 -56.5t132 64q250 178 499 432t366 426q84 121 178 121q33 0 33 -21q0 -4 -4 -16q-258 -451 -703 -1196q-131 -215 -279.5 -322.5 t-271.5 -107.5q-78 0 -152.5 55t-74.5 123q0 43 43 43q10 0 31 -4q25 -86 40 -117q35 -55 119 -55q252 0 619 688l368 657q-395 -422 -560 -586.5t-226 -201.5q-123 -74 -203 -74q-117 0 -117 137q0 164 140 338q10 12 87 105.5t180 222.5t172 249t69 168t-29 62 q-59 31 -135 31q-217 0 -600 -262q-160 -109 -254 -252t-94 -264t116 -152q37 -10 72 -10q104 0 231 90q150 100 168 107q-20 -76 -161 -166q-156 -96 -291 -97q-18 0 -68.5 7.5t-99.5 75t-49 163.5zM1540 1347.5q0 10.5 8 16.5l215 166q23 18 35 18q18 0 18.5 -24.5 t-16.5 -40.5q-18 -14 -124.5 -80t-121 -66t-14.5 10.5z" />
<glyph unicode="&#xde;" horiz-adv-x="337" d="M-109 -377q0 102 150 332l709 1079q82 135 92 178q12 43 -25 43l-76 -14q-12 0 -10 12q10 31 85 31t105.5 -22.5t30.5 -45t-5 -43t-57 -103.5t-127 -205t-99 -156q20 18 81 36q78 20 111 21q74 0 128 -42t54 -122t-48 -173t-144 -169q-145 -113 -326 -113 q-92 0 -130 11.5t-77 50.5q-356 -522 -356 -612q0 -25 27 -25l69 22q6 0 2 -4q-4 -14 -34.5 -27.5t-47.5 -13.5q-82 0 -82 74zM338 244q43 -39 156 -39q158 0 270 88q170 135 170 338q0 78 -92 78t-168 -39q-29 -14 -90 -76q-213 -301 -246 -350z" />
<glyph unicode="&#xdf;" horiz-adv-x="1189" d="M-905 -492q0 68 43 142l31 28q6 12 24 13l2 -2q-55 -70 -55 -139.5t51 -111.5t149.5 -42t178.5 63q170 129 324.5 356.5t250.5 438.5q319 692 450.5 899t293.5 207q137 0 206.5 -51.5t69.5 -200.5q0 -109 -67.5 -170t-204.5 -107q-57 -20 -89 -34.5t-68 -51t-36 -86.5 q0 -80 144 -120q229 -47 282 -84q74 -55 74 -127q0 -109 -106.5 -199t-231.5 -130t-231 -40q-10 0 -97 14q14 -8 77 -33.5t78 -29.5t15 -8q0 -8 -20.5 -8t-87 29.5t-96.5 53.5q-88 12 -125 48q-29 23 -50.5 63.5t-21.5 78.5t25.5 70.5t64.5 32.5q35 0 41 -59q8 -59 17.5 -92 t19.5 -67t35 -56q45 -10 90 -10q205 0 399 155q92 74 92 153t-104 105l-221 56q-66 18 -107 61t-41 96q0 90 72 154.5t169 95.5t156.5 99.5t59.5 155.5t-46 141.5t-125 54.5t-166 -108.5t-173 -282.5t-180 -383t-204 -419t-227.5 -384t-266 -282.5t-304.5 -108.5 q-109 0 -171 47t-62 116zM289 175q0 -71 55 -126q29 -29 74 -43q-51 51 -76 187q-10 53 -16 53q-37 0 -37 -71z" />
<glyph unicode="&#xe0;" horiz-adv-x="843" d="M-18 133q0 150 208.5 357.5t382.5 207.5q68 0 91 -47q6 -16 10 -27.5t6 -11.5l29 6q23 0 43 -19t20 -28.5t-127 -197t-127 -260.5q0 -6 2 -13q10 -47 45 -47q106 0 389 353q6 8 14.5 8t8.5 -15.5t-19 -40.5q-262 -350 -399 -350q-18 0 -35 6q-90 35 -90 136q0 35 8 69 l-129 -123q-119 -106 -173 -106t-103 35q-55 41 -55 108zM68 109q0 -74 51 -74q117 0 321 260q201 272 219 299q-16 29 -53 29q-125 0 -331.5 -193.5t-206.5 -320.5zM465 953.5q0 21.5 15.5 21.5t105.5 -68.5t99 -79t9 -14.5q0 -12 -10 -12q-14 0 -95 49t-110 74 q-14 8 -14 29.5z" />
<glyph unicode="&#xe1;" horiz-adv-x="843" d="M-18 133q0 150 208.5 357.5t382.5 207.5q68 0 91 -47q6 -16 10 -27.5t6 -11.5l29 6q23 0 43 -19t20 -28.5t-127 -197t-127 -260.5q0 -6 2 -13q10 -47 45 -47q106 0 389 353q6 8 14.5 8t8.5 -15.5t-19 -40.5q-262 -350 -399 -350q-18 0 -35 6q-90 35 -90 136q0 35 8 69 l-129 -123q-119 -106 -173 -106t-103 35q-55 41 -55 108zM68 109q0 -74 51 -74q117 0 321 260q201 272 219 299q-16 29 -53 29q-125 0 -331.5 -193.5t-206.5 -320.5zM573 866q0 6 7 13l217 168q23 18 34 18q18 0 18.5 -25t-15.5 -41q-18 -14 -127 -79.5t-121.5 -65.5 t-12.5 12z" />
<glyph unicode="&#xe2;" horiz-adv-x="843" d="M-18 133q0 150 208.5 357.5t382.5 207.5q68 0 91 -47q6 -16 10 -27.5t6 -11.5l29 6q23 0 43 -19t20 -28.5t-127 -197t-127 -260.5q0 -6 2 -13q10 -47 45 -47q106 0 389 353q6 8 14.5 8t8.5 -15.5t-19 -40.5q-262 -350 -399 -350q-18 0 -35 6q-90 35 -90 136q0 35 8 69 l-129 -123q-119 -106 -173 -106t-103 35q-55 41 -55 108zM68 109q0 -74 51 -74q117 0 321 260q201 272 219 299q-16 29 -53 29q-125 0 -331.5 -193.5t-206.5 -320.5zM532.5 788.5q-0.5 12.5 69.5 69.5t88 62l8 -2q47 -53 146 -125l6 -13l-6 -8q-23 0 -84.5 39t-85.5 63 q-117 -98 -133 -98q-8 0 -8.5 12.5z" />
<glyph unicode="&#xe3;" horiz-adv-x="843" d="M-18 133q0 150 208.5 357.5t382.5 207.5q68 0 91 -47q6 -16 10 -27.5t6 -11.5l29 6q23 0 43 -19t20 -28.5t-127 -197t-127 -260.5q0 -6 2 -13q10 -47 45 -47q106 0 389 353q6 8 14.5 8t8.5 -15.5t-19 -40.5q-262 -350 -399 -350q-18 0 -35 6q-90 35 -90 136q0 35 8 69 l-129 -123q-119 -106 -173 -106t-103 35q-55 41 -55 108zM68 109q0 -74 51 -74q117 0 321 260q201 272 219 299q-16 29 -53 29q-125 0 -331.5 -193.5t-206.5 -320.5zM539 831q0 27 63 60q26 14 55 14l142 -31q37 0 61 31q4 2 7 2t3 -6q0 -20 -38.5 -47t-62.5 -27t-73 19 q-43 20 -68.5 20t-86.5 -39q-2 2 -2 4z" />
<glyph unicode="&#xe4;" horiz-adv-x="843" d="M-18 133q0 150 208.5 357.5t382.5 207.5q68 0 91 -47q6 -16 10 -27.5t6 -11.5l29 6q23 0 43 -19t20 -28.5t-127 -197t-127 -260.5q0 -6 2 -13q10 -47 45 -47q106 0 389 353q6 8 14.5 8t8.5 -15.5t-19 -40.5q-262 -350 -399 -350q-18 0 -35 6q-90 35 -90 136q0 35 8 69 l-129 -123q-119 -106 -173 -106t-103 35q-55 41 -55 108zM68 109q0 -74 51 -74q117 0 321 260q201 272 219 299q-16 29 -53 29q-125 0 -331.5 -193.5t-206.5 -320.5zM541 862q0 27 51 61.5t64.5 34.5t15.5 -2v-2l-23 -28l-28 -66q-19 -45 -46 -45q-12 0 -23 17.5t-11 29.5z M741 862q0 27 51.5 61.5t64.5 34.5t15 -2v2q2 -2 2 -4q-12 -16 -24 -28l-29 -66q-18 -45 -43 -45q-12 0 -24.5 17.5t-12.5 29.5z" />
<glyph unicode="&#xe5;" horiz-adv-x="843" d="M-18 137q0 150 196 342q217 217 389 219q-10 20 -10 54t22.5 83.5t57.5 59.5q35 66 104 66q37 0 62.5 -32t25.5 -87.5t-51 -113.5t-119 -66q4 -6 9 -19q6 -31 12 -31l29 6q23 0 43 -18t20 -28.5t-127 -198t-127 -260.5q0 -6 2 -13q10 -47 45 -47q106 0 389 353 q6 8 14.5 8t8.5 -15.5t-19 -40.5q-262 -350 -399 -350q-18 0 -35 6q-90 35 -90 136q0 35 8 69l-127 -123q-121 -106 -175 -106t-103 35q-55 41 -55 112zM68 109q0 -74 51 -74q119 0 323 260l217 299q-16 29 -53 29q-125 0 -331.5 -193.5t-206.5 -320.5zM633 741 q0 -41 31 -41q47 0 81.5 48.5t34.5 112t-45 63.5q-20 0 -59 -29l22 -10q-2 -6 -33.5 -54.5t-31.5 -89.5z" />
<glyph unicode="&#xe6;" horiz-adv-x="577" d="M27 49q0 86 84 213q115 166 225 166q57 0 86 -41q53 47 108 47q43 0 43 -51t-75.5 -122t-135.5 -93q-12 -41 -12 -72q0 -68 62 -67q119 0 245 145q16 16 23.5 16t7.5 -6t-2 -10q-39 -63 -130 -122.5t-150.5 -59.5t-81.5 22q-14 29 -35 60q-8 41 -8 70.5t2 50.5 q-115 -203 -203 -203q-53 0 -53 57zM84 78q0 -35 27 -35q55 0 137 137q61 98 98 191q-4 2 -16 2q-72 0 -159 -108.5t-87 -186.5zM373 203q49 23 99 72t50 92q0 18 -20 18q-27 0 -72 -72.5t-57 -109.5z" />
<glyph unicode="&#xe7;" horiz-adv-x="579" d="M-160 -551q0 10 19 16q98 16 147 23q72 23 72 119q0 27 -53.5 103.5t-53.5 125.5t26 96.5t71 65.5q-84 41 -84 129q0 143 180 331.5t323 188.5q47 0 77 -25.5t30 -69.5t-26.5 -92t-80 -48t-53.5 32q0 23 27.5 69t27.5 49t-6 3q-57 -6 -156.5 -81.5t-136.5 -127.5 l-79 -116q-20 -33 -29.5 -78t-9.5 -67.5t25.5 -51.5t72.5 -29q102 0 253.5 120t233.5 228q10 12 24.5 12.5t14.5 -8t-10 -20.5q-113 -150 -269.5 -261.5t-260.5 -111.5q-29 0 -37 4.5t-10 4.5q-66 -33 -66 -121q0 -23 60.5 -100t60.5 -132q0 -96 -99.5 -149t-205.5 -53 q-18 0 -19 22z" />
<glyph unicode="&#xe8;" horiz-adv-x="526" d="M-68 127q0 143 180.5 331.5t323.5 188.5q47 0 77 -25.5t30 -62.5q0 -115 -173 -219t-282 -104q-16 0 -29 4q-31 -55 -30 -117q0 -106 101 -106.5t263 137.5q121 96 213 215q18 25 31.5 24.5t13.5 -12.5t-16 -35q-115 -150 -268.5 -261.5t-262.5 -111.5q-23 0 -41 7 q-131 37 -131 147zM90 285q12 -4 27 -4q78 0 208 82.5t162 181.5q5 10 5 18q0 25 -52.5 25t-148.5 -80q-129 -106 -201 -223zM309.5 887.5q-0.5 21.5 14 21.5t48.5 -24.5t163 -128.5q6 -7 6 -11q0 -10 -9 -10q-16 0 -208 119q-14 12 -14.5 33.5z" />
<glyph unicode="&#xe9;" horiz-adv-x="526" d="M-68 127q0 143 180.5 331.5t323.5 188.5q47 0 77 -25.5t30 -62.5q0 -115 -173 -219t-282 -104q-16 0 -29 4q-31 -55 -30 -117q0 -106 101 -106.5t263 137.5q121 96 213 215q18 25 31.5 24.5t13.5 -12.5t-16 -35q-115 -150 -268.5 -261.5t-262.5 -111.5q-23 0 -41 7 q-131 37 -131 147zM90 285q12 -4 27 -4q78 0 208 82.5t162 181.5q5 10 5 18q0 25 -52.5 25t-148.5 -80q-129 -106 -201 -223zM453 766q0 6 6 12q102 78 215 168q23 16 35 17q20 0 20 -26t-20 -40q-20 -18 -126 -80.5t-118 -62.5t-12 12z" />
<glyph unicode="&#xea;" horiz-adv-x="526" d="M-68 127q0 143 180.5 331.5t323.5 188.5q47 0 77 -25.5t30 -62.5q0 -115 -173 -219t-282 -104q-16 0 -29 4q-31 -55 -30 -117q0 -106 101 -106.5t263 137.5q121 96 213 215q18 25 31.5 24.5t13.5 -12.5t-16 -35q-115 -150 -268.5 -261.5t-262.5 -111.5q-23 0 -41 7 q-131 37 -131 147zM90 285q12 -4 27 -4q78 0 208 82.5t162 181.5q5 10 5 18q0 25 -52.5 25t-148.5 -80q-129 -106 -201 -223zM350 733q0 12 69.5 69.5t88.5 61.5l8 -4q47 -51 146 -125l6 -10l-6 -10q-27 4 -88.5 43t-81.5 59q-119 -96 -130.5 -96t-11.5 12z" />
<glyph unicode="&#xeb;" horiz-adv-x="526" d="M-68 127q0 143 180.5 331.5t323.5 188.5q47 0 77 -25.5t30 -62.5q0 -115 -173 -219t-282 -104q-16 0 -29 4q-31 -55 -30 -117q0 -106 101 -106.5t263 137.5q121 96 213 215q18 25 31.5 24.5t13.5 -12.5t-16 -35q-115 -150 -268.5 -261.5t-262.5 -111.5q-23 0 -41 7 q-131 37 -131 147zM90 285q12 -4 27 -4q78 0 208 82.5t162 181.5q5 10 5 18q0 25 -52.5 25t-148.5 -80q-129 -106 -201 -223zM385 757.5q0 20.5 49 53.5q49 37 76 37q4 0 6 -2v-2q-12 -16 -24 -29q-16 -45 -31.5 -79t-40.5 -34q-12 0 -23.5 17.5t-11.5 38zM586 757.5 q0 20.5 51 55.5t76 35q2 0 6 -4l-25 -29l-28 -67q-18 -46 -45 -46q-12 0 -23.5 17.5t-11.5 38z" />
<glyph unicode="&#xec;" d="M-31 113q0 111 121 306t195 197q20 0 45.5 -16t25.5 -33q-10 -14 -24.5 -31.5t-30.5 -38t-45 -58.5t-55 -72q-154 -199 -154 -273t55 -74q74 0 204 109t190 174q14 20 26 21q8 0 8 -13q0 -61 -186 -198.5t-254 -137.5q-121 0 -121 138zM203 883.5q0 19.5 15 19.5 t100 -64.5t100.5 -79t15.5 -22.5t-11 -8t-98.5 51.5t-105.5 67.5q-16 16 -16 35.5z" />
<glyph unicode="&#xed;" d="M-31 113q0 111 121 306t195 197q20 0 45.5 -16t25.5 -33q-10 -14 -24.5 -31.5t-30.5 -38t-45 -58.5t-55 -72q-154 -199 -154 -273t55 -74q74 0 204 109t190 174q14 20 26 21q8 0 8 -13q0 -61 -186 -198.5t-254 -137.5q-121 0 -121 138zM326 690q0 8 6 15l217 169 q20 18 33 19q20 0 20 -25t-16 -41q-23 -16 -128.5 -80.5t-118.5 -64.5t-13 8z" />
<glyph unicode="&#xee;" d="M-31 113q0 111 121 306t195 197q20 0 45.5 -16t25.5 -33q-10 -14 -24.5 -31.5t-30.5 -38t-45 -58.5t-55 -72q-154 -199 -154 -273t55 -74q74 0 204 109t190 174q14 20 26 21q8 0 8 -13q0 -61 -186 -198.5t-254 -137.5q-121 0 -121 138zM219 721q0 12 69.5 69.5t88.5 61.5 l6 -2q39 -43 145 -127l7 -10l-5 -8q-25 0 -83 36.5t-87 65.5q-119 -98 -130 -98t-11 12z" />
<glyph unicode="&#xef;" d="M-31 113q0 111 121 306t195 197q20 0 45.5 -16t25.5 -33q-10 -14 -24.5 -31.5t-30.5 -38t-45 -58.5t-55 -72q-154 -199 -154 -273t55 -74q74 0 204 109t190 174q14 20 26 21q8 0 8 -13q0 -61 -186 -198.5t-254 -137.5q-121 0 -121 138zM219 786.5q0 20.5 49 53.5 q49 37 76 37q4 0 6 -3v-2q-12 -16 -24 -28q-10 -23 -27 -68q-20 -45 -45 -45q-12 0 -23.5 17.5t-11.5 38zM420 786.5q0 20.5 49 53.5q49 37 76 37q4 0 6 -3v-2l-23 -28l-28 -68q-18 -45 -45 -45q-12 0 -23.5 17.5t-11.5 38z" />
<glyph unicode="&#xf0;" horiz-adv-x="776" d="M20 180q0 63 29 158q55 143 205 321q72 88 147.5 127t137 39t106.5 -34q2 12 2 28q0 102 -88 336q-141 -25 -181 -25t-57.5 7.5t-11.5 27.5q0 23 47 36t181 24q-25 59 -77 150t-49 109.5t19 30t27.5 11.5t21.5 -4q63 -20 162 -287q164 14 205 14q55 0 55 -8 q-6 -31 -242 -72q63 -199 64 -399q0 -106 -23.5 -237.5t-114.5 -268.5t-218 -207q-86 -49 -166 -49q-180 0 -181 172zM127 150q0 -92 86 -93q51 0 131 46.5t168 166.5q102 145 119 314q6 27 6 47q0 61 -49 78l-19 4q-8 10 -32 10q-51 0 -133 -83t-152 -189 q-125 -190 -125 -301z" />
<glyph unicode="&#xf1;" horiz-adv-x="825" d="M-72 182q0 10 50.5 60.5t190.5 227.5t161 177q55 0 55 -43q0 -12 -6 -24q-184 -256 -221 -387q477 477 579 477q10 2 19 2q57 0 57 -51q0 -10 -4 -21t-82 -111q-215 -254 -215 -368q0 -66 29 -66q47 0 144 81t169 167q16 16 24.5 16t8.5 -11t-48 -75.5t-142.5 -150.5 t-151.5 -86q-123 0 -123 139q0 82 82 225l131 213q-139 -102 -247.5 -224t-198 -236.5t-103.5 -114.5q-31 0 -48.5 25.5t-17.5 46.5q0 59 125 303q-23 -35 -165 -172q-25 -25 -38.5 -25t-13.5 6zM416 791q0 33 88 83q33 20 68.5 20.5t100 -21t106.5 -21.5t79 43q2 2 6 2 t4 -10q0 -31 -80 -86q-27 -16 -60.5 -16.5t-100 27.5t-100 28t-66.5 -27t-43 -27q-2 2 -2 5z" />
<glyph unicode="&#xf2;" horiz-adv-x="575" d="M-20 137q0 123 179 345.5t290 222.5q104 0 104 -111q0 -29 -10 -74q2 -6 38.5 -6t112.5 39q-2 -35 -162 -100q3 -9 3 -19q0 -72 -138 -239q-162 -199 -276 -199h-33q-53 0 -84 55q-25 39 -24 86zM76 135q0 -78 49 -78q88 0 223 160t135 229q-33 19 -82 95 q-70 0 -197.5 -164t-127.5 -242zM346 951q0 20 15.5 20t106.5 -71t100.5 -80t9.5 -16t-10.5 -7t-97.5 51t-108 67q-16 16 -16 36z" />
<glyph unicode="&#xf3;" horiz-adv-x="575" d="M-20 137q0 123 179 345.5t290 222.5q104 0 104 -111q0 -29 -10 -74q2 -6 38.5 -6t112.5 39q-2 -35 -162 -100q3 -9 3 -19q0 -72 -138 -239q-162 -199 -276 -199h-33q-53 0 -84 55q-25 39 -24 86zM76 135q0 -78 49 -78q88 0 223 160t135 229q-33 19 -82 95 q-70 0 -197.5 -164t-127.5 -242zM522 807q0 6 6 12q102 78 215 168q23 16 35 17q20 0 20.5 -26t-20.5 -40q-20 -18 -125.5 -80.5t-118 -62.5t-12.5 12z" />
<glyph unicode="&#xf4;" horiz-adv-x="575" d="M-20 137q0 123 179 345.5t290 222.5q104 0 104 -111q0 -29 -10 -74q2 -6 38.5 -6t112.5 39q-2 -35 -162 -100q3 -9 3 -19q0 -72 -138 -239q-162 -199 -276 -199h-33q-53 0 -84 55q-25 39 -24 86zM76 135q0 -78 49 -78q88 0 223 160t135 229q-33 19 -82 95 q-70 0 -197.5 -164t-127.5 -242zM387 788.5q0 12.5 69.5 69.5t88.5 62l8 -2q45 -51 145 -127l7 -11l-7 -8q-23 0 -84 38.5t-86 63.5q-117 -98 -129 -98t-12 12.5z" />
<glyph unicode="&#xf5;" horiz-adv-x="575" d="M-20 137q0 123 179 345.5t290 222.5q104 0 104 -111q0 -29 -10 -74q2 -6 38.5 -6t112.5 39q-2 -35 -162 -100q3 -9 3 -19q0 -72 -138 -239q-162 -199 -276 -199h-33q-53 0 -84 55q-25 39 -24 86zM76 135q0 -78 49 -78q88 0 223 160t135 229q-33 19 -82 95 q-70 0 -197.5 -164t-127.5 -242zM340 831q0 33 88 84q33 20 68.5 20.5t100.5 -21t109 -21.5t76 43q13 0 13 -8q0 -31 -82 -86q-27 -16 -59.5 -16.5t-96 26.5t-101.5 27t-71 -27q-45 -37 -45 -21z" />
<glyph unicode="&#xf6;" horiz-adv-x="575" d="M-20 137q0 123 179 345.5t290 222.5q104 0 104 -111q0 -29 -10 -74q2 -6 38.5 -6t112.5 39q-2 -35 -162 -100q3 -9 3 -19q0 -72 -138 -239q-162 -199 -276 -199h-33q-53 0 -84 55q-25 39 -24 86zM76 135q0 -78 49 -78q88 0 223 160t135 229q-33 19 -82 95 q-70 0 -197.5 -164t-127.5 -242zM432 856q0 29 51.5 62.5t64.5 33.5t15 -2v-2l-22 -28l-29 -66q-18 -45 -45 -45q-12 0 -23.5 17.5t-11.5 29.5zM633 856q0 29 51 62.5t64.5 33.5t15.5 -2v2q2 -2 2 -4q-12 -16 -25 -28l-28 -66q-18 -45 -43 -45q-12 0 -24.5 17.5t-12.5 29.5z " />
<glyph unicode="&#xf7;" horiz-adv-x="831" d="M39 481q0 20 17.5 34.5t31.5 14.5h31l51 2h164h96l213 -2q117 0 168 7q2 -4 2 -9.5t-14 -15.5q-35 -20 -134.5 -36.5t-180.5 -30t-129 -13.5t-136 6q-180 12 -180 43zM291 287q0 59 78 59q30 0 58 -20.5t28 -46t-26 -45t-56.5 -19.5t-56 20.5t-25.5 51.5zM385 696 q0 59 78 60q31 0 58.5 -20.5t27.5 -46t-25.5 -45t-56.5 -19.5t-56.5 20.5t-25.5 50.5z" />
<glyph unicode="&#xf8;" horiz-adv-x="575" d="M-82 -287q0 127 115 301q-53 53 -53 123q0 123 179 345.5t290 222.5q41 0 65 -19q211 272 242 272q18 0 28.5 -10t10.5 -21.5t-63.5 -84t-180.5 -219.5l2 -29q0 -29 -10 -74q2 -6 38.5 -6t112.5 39q-2 -35 -162 -100q2 -8 3 -19q0 -72 -138 -239q-162 -199 -276 -199h-35 q-127 -193 -127 -258q0 -29 18 -39q6 -4 -2 -17.5t-32.5 -13.5t-24.5 45zM76 127q0 -20 4 -37q59 90 321 449v2q-70 0 -197.5 -164t-127.5 -250zM127 57q86 2 221 160.5t135 228.5q-20 10 -41 37q-246 -326 -315 -426z" />
<glyph unicode="&#xf9;" horiz-adv-x="870" d="M-29 230.5q0 11.5 21 31.5l270 318q55 61 109.5 61t54.5 -37q0 -14 -12 -26q-82 -76 -206 -252t-124 -260q0 -37 25 -37q39 0 139 77l110 93q33 25 209 250q160 199 209 198q74 0 74 -57q0 -20 -86 -119q-117 -141 -178.5 -230t-61.5 -144.5t31 -55.5q14 0 33 8 q147 66 338 283q12 14 24.5 14t12.5 -10q0 -41 -207 -223q-134 -115 -183 -125q-10 -2 -43.5 -2t-67.5 26.5t-34 68.5t15.5 93t21.5 78l-180 -180q-106 -94 -189.5 -94.5t-91.5 104.5v12q0 84 100 228l-100 -91q-12 -12 -22.5 -12t-10.5 11.5zM436 910.5q0 21.5 17 21.5 q24 0 206 -154q6 -6 6.5 -14t-9 -8t-96.5 53t-105.5 66.5t-18.5 35z" />
<glyph unicode="&#xfa;" horiz-adv-x="870" d="M-29 230.5q0 11.5 21 31.5l270 318q55 61 109.5 61t54.5 -37q0 -14 -12 -26q-82 -76 -206 -252t-124 -260q0 -37 25 -37q39 0 139 77l110 93q33 25 209 250q160 199 209 198q74 0 74 -57q0 -20 -86 -119q-117 -141 -178.5 -230t-61.5 -144.5t31 -55.5q14 0 33 8 q147 66 338 283q12 14 24.5 14t12.5 -10q0 -41 -207 -223q-134 -115 -183 -125q-10 -2 -43.5 -2t-67.5 26.5t-34 68.5t15.5 93t21.5 78l-180 -180q-106 -94 -189.5 -94.5t-91.5 104.5v12q0 84 100 228l-100 -91q-12 -12 -22.5 -12t-10.5 11.5zM541 758q0 10 6 16 q63 45 217 166q23 18 35 18q18 0 18 -24.5t-16 -40.5q-18 -14 -125 -79.5t-121 -65.5t-14 10z" />
<glyph unicode="&#xfb;" horiz-adv-x="870" d="M-29 230.5q0 11.5 21 31.5l270 318q55 61 109.5 61t54.5 -37q0 -14 -12 -26q-82 -76 -206 -252t-124 -260q0 -37 25 -37q39 0 139 77l110 93q33 25 209 250q160 199 209 198q74 0 74 -57q0 -20 -86 -119q-117 -141 -178.5 -230t-61.5 -144.5t31 -55.5q14 0 33 8 q147 66 338 283q12 14 24.5 14t12.5 -10q0 -41 -207 -223q-134 -115 -183 -125q-10 -2 -43.5 -2t-67.5 26.5t-34 68.5t15.5 93t21.5 78l-180 -180q-106 -94 -189.5 -94.5t-91.5 104.5v12q0 84 100 228l-100 -91q-12 -12 -22.5 -12t-10.5 11.5zM510 790.5q0 12.5 69.5 70 t88.5 61.5l8 -2q47 -53 145 -125l6 -13l-6 -8q-23 0 -81 36t-89 67q-119 -99 -133 -99q-8 0 -8 12.5z" />
<glyph unicode="&#xfc;" horiz-adv-x="870" d="M-29 230.5q0 11.5 21 31.5l270 318q55 61 109.5 61t54.5 -37q0 -14 -12 -26q-82 -76 -206 -252t-124 -260q0 -37 25 -37q39 0 139 77l110 93q33 25 209 250q160 199 209 198q74 0 74 -57q0 -20 -86 -119q-117 -141 -178.5 -230t-61.5 -144.5t31 -55.5q14 0 33 8 q147 66 338 283q12 14 24.5 14t12.5 -10q0 -41 -207 -223q-134 -115 -183 -125q-10 -2 -43.5 -2t-67.5 26.5t-34 68.5t15.5 93t21.5 78l-180 -180q-106 -94 -189.5 -94.5t-91.5 104.5v12q0 84 100 228l-100 -91q-12 -12 -22.5 -12t-10.5 11.5zM518 821.5q0 18.5 50 54 t77 35.5q2 0 4 -2v2q2 -2 2 -4q-12 -16 -24 -28l-29 -66q-18 -45 -43 -45q-12 0 -24.5 17.5t-12.5 36zM721 821.5q0 18.5 49 54t64.5 35.5t17.5 -2v-2q-12 -16 -25 -28l-26 -66q-20 -45 -45 -45q-12 0 -23.5 17.5t-11.5 36z" />
<glyph unicode="&#xfd;" horiz-adv-x="757" d="M-115 -238q98 -123 170 -122q117 0 252 186q98 137 193 346l78 188l-302 -235q-139 -109 -223 -109q-45 0 -71.5 31t-26.5 70q0 88 151.5 289.5t221 201.5t69.5 -47q0 -18 -181 -211.5t-181 -261.5q0 -27 35 -27q66 0 263 154t298 254q23 27 63 80q39 45 86 45t47 -45 q0 -8 -92 -145.5t-96 -145.5q-63 -123 -195 -358q-199 -319 -397 -320q-66 0 -115 56t-47 126zM563 696.5q0 10.5 8 16.5l215 166q20 18 37 18t17 -24.5t-17 -41.5q-18 -14 -124.5 -79.5t-121 -65.5t-14.5 10.5z" />
<glyph unicode="&#xfe;" horiz-adv-x="555" d="M-162 -465.5q0 19.5 4 31.5q35 131 135 293l609 903q82 135 92 178q12 43 -25 43l-75 -14q-12 0 -11 12q10 31 85 31t105.5 -22.5t30.5 -45t-5 -43t-76.5 -134.5t-137.5 -206q20 18 82 37q78 20 111 20q74 0 128 -41.5t54 -113.5q0 -166 -189.5 -314.5t-328.5 -148.5 q-92 0 -130 11.5t-77 49.5q-326 -477 -325 -561q0 -25 26 -24l70 22q6 0 2 -4q-4 -14 -35 -27.5t-57.5 -13.5t-44 31t-17.5 50.5zM244 96q43 -39 155.5 -39t276.5 128t164 298q0 78 -92.5 78t-167.5 -39q-29 -14 -91 -76q-213 -301 -245 -350z" />
<glyph unicode="&#xff;" horiz-adv-x="757" d="M-115 -238q98 -123 170 -122q117 0 252 186q98 137 193 346l78 188l-302 -235q-139 -109 -223 -109q-45 0 -71.5 31t-26.5 70q0 88 151.5 289.5t221 201.5t69.5 -47q0 -18 -181 -211.5t-181 -261.5q0 -27 35 -27q66 0 263 154t298 254q23 27 63 80q39 45 86 45t47 -45 q0 -8 -92 -145.5t-96 -145.5q-63 -123 -195 -358q-199 -319 -397 -320q-66 0 -115 56t-47 126zM426 769q0 24 59 67q61 43 95 43q2 0 6 -2q-2 0 -29 -37l-33 -82q-24 -56 -55 -56q-14 0 -28.5 21.5t-14.5 45.5zM586 877h2v-3q0 2 -2 3zM674 769q0 24 59 67q61 43 94 43l7 -2 q-2 0 -29 -37l-33 -82q-25 -55 -55 -56q-14 0 -28.5 21.5t-14.5 45.5zM834 877h2v-3z" />
<glyph unicode="&#x152;" horiz-adv-x="2711" d="M49 245.5q0 157.5 84 344.5q106 236 416 459q356 254 737 254q205 0 311.5 -80t106.5 -199q0 -74 -57 -182q16 -55 16 -109.5t-14 -122.5q147 94 350 160q-68 78 -68 166t43 147q84 115 252 189q201 88 402 88q117 0 187.5 -38t70.5 -117t-58.5 -133t-122 -54t-63.5 31 q0 18 27 18l41 -6q41 0 74.5 44t33.5 91q0 70 -80 102q-51 20 -96 20.5t-64 -1.5q-174 -10 -344 -123q-197 -129 -196 -291q0 -59 41 -110q131 41 250 41q201 0 200 -76q0 -16 -12 -37q-49 -76 -178 -76q-84 0 -171 30t-134 62q-264 -78 -437 -256q-47 -88 -122 -170 q-41 -82 -41 -155q0 -115 95 -186.5t279 -71.5q51 0 107 6q326 35 518 209q162 143 162 301q0 125 -121 125q-145 0 -334 -156q-47 -39 -79.5 -98.5t-32.5 -116.5t57 -72q20 -8 20 -20q0 -20 -41 -17q-98 2 -98 129t129 238q176 152 373 152q145 0 186 -93q16 -43 17 -86 q0 -190 -211 -358q-252 -205 -639 -205q-240 0 -379 89t-139 233q-369 -279 -805 -279q-55 0 -86 2q-164 8 -263.5 107.5t-99.5 257zM160 207q0 -270 272 -285q29 -2 57 -2q403 0 768 326q262 233 283 444q-106 -117 -369 -278l-16 -4q-2 0 -2 2q0 8 55 55l115 94 q147 129 215 211q-14 115 -103 191.5t-204 111.5q-57 14 -177 18.5t-120 8.5t4 8q94 31 181 31t200 -27q215 -51 301 -209q20 49 20 109.5t-45 124.5q-88 123 -311 123q-309 0 -583.5 -191.5t-428.5 -482.5q-113 -211 -112 -379zM2114 760q86 -70 201.5 -70t115.5 64 q0 29 -102 29t-215 -23z" />
<glyph unicode="&#x153;" horiz-adv-x="950" d="M-20 137q0 123 179 345.5t290 222.5q104 0 104 -111q0 -4 5 -31.5t3 -45t-3 -26t-1 -10.5q170 166 303 166q47 0 77 -25.5t30 -62.5q0 -115 -172 -219t-283 -104q-16 0 -29 4q-31 -55 -30 -117q0 -106 101 -106.5t263 137.5q121 96 213 215q18 25 31.5 24.5t13.5 -12.5 t-16 -35q-113 -150 -267.5 -261.5t-263.5 -111.5q-23 0 -41 7q-131 37 -131 147v20q-133 -152 -235 -151h-33q-53 0 -84 55q-25 39 -24 86zM76 135q0 -78 49 -78q88 0 225 162l49 62q14 27 60 92q25 43 24.5 63.5t-0.5 28.5q0 80 -53 80q-12 0 -29 -4q-70 0 -197.5 -164 t-127.5 -242zM514 285q12 -4 27 -4q78 0 208 82.5t162 181.5q4 10 4 18q0 25 -52 25t-148 -80q-129 -106 -201 -223z" />
<glyph unicode="&#x178;" horiz-adv-x="1806" d="M29 561q0 279 407 569q119 86 313.5 156t314.5 70t182.5 -38t62.5 -121t-115 -258t-363 -476q-51 -59 -94 -154.5t-43 -152t44 -56.5t132 64q250 178 499 432t366 426q84 121 178 121q33 0 33 -21q0 -4 -4 -16q-258 -451 -703 -1196q-131 -215 -279.5 -322.5 t-271.5 -107.5q-78 0 -152.5 55t-74.5 123q0 43 43 43q10 0 31 -4q25 -86 40 -117q35 -55 119 -55q252 0 619 688l368 657q-395 -422 -560 -586.5t-226 -201.5q-123 -74 -203 -74q-117 0 -117 137q0 164 140 338q10 12 87 105.5t180 222.5t172 249t69 168t-29 62 q-59 31 -135 31q-217 0 -600 -262q-160 -109 -254 -252t-94 -264t116 -152q37 -10 72 -10q104 0 231 90q150 100 168 107q-20 -76 -161 -166q-156 -96 -291 -97q-18 0 -68.5 7.5t-99.5 75t-49 163.5zM1425 1346.5q0 23.5 60 66.5q61 43 94 43q2 0 6 -2q-2 0 -29 -37l-32 -82 q-25 -55 -56 -55q-14 0 -28.5 21.5t-14.5 45zM1585 1454h2v-2q0 2 -2 2zM1673 1346.5q0 23.5 60 66.5q61 43 94 43l6 -2q-2 0 -29 -37l-32 -82q-25 -55 -56 -55q-14 0 -28.5 21.5t-14.5 45zM1833 1454h2v-2q0 2 -2 2z" />
<glyph unicode="&#x2c6;" horiz-adv-x="757" d="M164 762q0 6 20 24q156 94 203 136q61 51 74 51q31 0 121 -99q8 -8 48 -54t40 -65.5t-16.5 -19.5t-88 65.5t-116.5 92.5q-12 -8 -68.5 -43t-106 -67.5t-65.5 -34.5q-45 -12 -45 14z" />
<glyph unicode="&#x2dc;" horiz-adv-x="557" d="M59 901q0 33 88 84q33 20 69 20.5t100.5 -21t106.5 -21.5t79 43q12 -1 12 -9q0 -31 -82 -86q-27 -16 -60.5 -16t-100 27.5t-100.5 27.5t-66.5 -26.5t-43.5 -26.5q-2 2 -2 4z" />
<glyph unicode="&#x2000;" horiz-adv-x="845" />
<glyph unicode="&#x2001;" horiz-adv-x="1690" />
<glyph unicode="&#x2002;" horiz-adv-x="845" />
<glyph unicode="&#x2003;" horiz-adv-x="1690" />
<glyph unicode="&#x2004;" horiz-adv-x="563" />
<glyph unicode="&#x2005;" horiz-adv-x="422" />
<glyph unicode="&#x2006;" horiz-adv-x="281" />
<glyph unicode="&#x2007;" horiz-adv-x="281" />
<glyph unicode="&#x2008;" horiz-adv-x="211" />
<glyph unicode="&#x2009;" horiz-adv-x="338" />
<glyph unicode="&#x200a;" horiz-adv-x="93" />
<glyph unicode="&#x2010;" horiz-adv-x="608" d="M39 481q0 20 17.5 34.5t29.5 14.5t25 2h53h51l199 -2q119 0 170 7q2 -2 2 -7q0 -31 -162 -59q-88 -12 -165 -25.5t-98.5 -13.5t-71.5 9.5t-50 39.5z" />
<glyph unicode="&#x2011;" horiz-adv-x="608" d="M39 481q0 20 17.5 34.5t29.5 14.5t25 2h53h51l199 -2q119 0 170 7q2 -2 2 -7q0 -31 -162 -59q-88 -12 -165 -25.5t-98.5 -13.5t-71.5 9.5t-50 39.5z" />
<glyph unicode="&#x2012;" horiz-adv-x="608" d="M39 481q0 20 17.5 34.5t29.5 14.5t25 2h53h51l199 -2q119 0 170 7q2 -2 2 -7q0 -31 -162 -59q-88 -12 -165 -25.5t-98.5 -13.5t-71.5 9.5t-50 39.5z" />
<glyph unicode="&#x2013;" horiz-adv-x="831" d="M39 481q0 20 17.5 34.5t31.5 14.5h31l51 2h164h96l213 -2q117 0 168 7q2 -4 2 -9.5t-14 -15.5q-35 -20 -134.5 -36.5t-180.5 -30t-129 -13.5t-136 6q-180 12 -180 43z" />
<glyph unicode="&#x2014;" horiz-adv-x="1239" d="M39 453q0 23 19.5 50t31.5 27h41l84 2h242h129l383 -4q188 0 276 9q14 -33 -291 -66q-121 -10 -362 -35q-51 -14 -302 -14t-251 31z" />
<glyph unicode="&#x2018;" horiz-adv-x="258" d="M29 694q0 88 66.5 157t89 69t22.5 -5.5t-44 -54.5t-44 -80.5t27.5 -55.5t27.5 -36q0 -61 -61 -61q-29 0 -56.5 20t-27.5 47z" />
<glyph unicode="&#x2019;" horiz-adv-x="284" d="M109 606q8 10 21 24.5t26 28.5q43 47 43 79t-28 56.5t-28 36.5q0 61 60 62q31 0 58.5 -19.5t27.5 -48.5q0 -88 -66.5 -156.5t-97.5 -68.5q-16 0 -16 6z" />
<glyph unicode="&#x201a;" horiz-adv-x="176" d="M111 145q43 6 54 6.5t13 -1.5v-5q0 -18 -16.5 -119.5t-22.5 -111.5q-2 -8 -12 -8q-6 0 -6 16q0 131 -10 223z" />
<glyph unicode="&#x201c;" horiz-adv-x="421" d="M29 694q0 88 66.5 157t89 69t22.5 -5.5t-44 -54.5t-44 -80.5t27.5 -55.5t27.5 -36q0 -61 -61 -61q-29 0 -56.5 20t-27.5 47zM236 694q0 88 66.5 157t90 69t23.5 -5.5t-45 -54.5t-45 -80.5t27.5 -55.5t27.5 -36q0 -61 -59 -61q-31 0 -58.5 19t-27.5 48z" />
<glyph unicode="&#x201d;" horiz-adv-x="421" d="M-10 606q8 10 21.5 24.5t25.5 28.5q43 47 43 79t-27.5 56.5t-27.5 36.5q0 61 59 62q31 0 58.5 -19.5t27.5 -48.5q0 -88 -66.5 -156.5t-97.5 -68.5q-16 0 -16 6zM199 605q0 5 44 55.5t44 80t-28 54t-28 36.5q0 61 62 62q31 0 57.5 -19.5t26.5 -48.5q0 -88 -65.5 -156.5 t-89 -68.5t-23.5 5z" />
<glyph unicode="&#x201e;" horiz-adv-x="319" d="M111 145q43 6 54 6.5t13 -1.5v-5q0 -18 -16.5 -119.5t-22.5 -111.5q-2 -8 -12 -8q-6 0 -6 16q0 131 -10 223zM252 145q43 6 54 6.5t13 -1.5v-5q0 -18 -16 -119.5t-22 -111.5q-2 -8 -13 -8q-6 0 -6 16q0 131 -10 223z" />
<glyph unicode="&#x2022;" horiz-adv-x="1099" d="M111 485.5q0 182.5 130 312.5t313 130t313 -130t130 -313.5t-130 -313.5t-312 -130t-315 129q-129 133 -129 315.5z" />
<glyph unicode="&#x2026;" horiz-adv-x="1138" d="M233 70q0 59 78 59q31 0 58.5 -20.5t27.5 -46t-26.5 -45t-57 -19.5t-55.5 21.5t-25 50.5zM571 70q0 59 78 59q31 0 58.5 -20.5t27.5 -46t-26.5 -45t-57 -19.5t-55.5 21.5t-25 50.5zM901 70q0 59 78 59q31 0 58.5 -20.5t27.5 -46t-26.5 -45t-57.5 -19.5t-55.5 21.5 t-24.5 50.5z" />
<glyph unicode="&#x202f;" horiz-adv-x="338" />
<glyph unicode="&#x2039;" horiz-adv-x="696" d="M174 518q0 14 102.5 160.5t131 180.5t45 34t16.5 -12q0 -31 -203 -314q201 -256 201 -278.5t-18 -22.5q-4 0 -21 8q-57 80 -248 226q-6 4 -6 18z" />
<glyph unicode="&#x203a;" horiz-adv-x="614" d="M174 276q0 31 203 314q-201 256 -201 278.5t19 22.5q4 0 20 -8q57 -80 248 -226q6 -2 6 -17t-102.5 -161.5t-131 -180.5t-45 -34t-16.5 12z" />
<glyph unicode="&#x205f;" horiz-adv-x="422" />
<glyph unicode="&#x20ac;" horiz-adv-x="1486" d="M-137 481q0 20 17.5 34.5t31.5 14.5h31l51 2h108q29 78 68 154q-147 12 -147 41q0 23 17 36t32 13h30l125 4q221 313 553 455q227 96 437 96q111 0 192 -26q223 -70 223 -281q0 -111 -94 -227q-45 -55 -78 -56q-10 0 -20 4q-27 14 -6 46q8 10 20 18q92 100 92 231 t-98 195q-82 57 -221 57q-201 0 -404 -100q-268 -129 -479 -412l442 -2q172 0 281 4q10 -16 -45 -32.5t-166 -30.5l-301 -37q-18 -4 -98 -4t-178 2q-47 -82 -70 -148q74 3 135 3l289 -5q156 0 223 7q2 -2 2 -7q0 -31 -161.5 -51t-270.5 -34.5t-157 -14.5t-89 2 q-10 -47 -10 -106q0 -186 127 -287.5t315 -101.5q215 0 422 104q158 82 273 209q33 37 51 37q12 0 12 -21.5t-22 -44.5q-109 -115 -314 -221q-252 -133 -507 -133t-380 168q-84 111 -84 262q0 66 15 137l-35 4q-180 12 -180 43z" />
<glyph unicode="&#x2122;" horiz-adv-x="1343" d="M55 1255q14 27 252 44.5t310.5 17.5t72.5 -17q0 -27 -146.5 -41t-160.5 -42q-37 -70 -81 -212.5t-59.5 -191.5t-54.5 -135q-12 -18 -45.5 -18.5t-33.5 25.5t71.5 199t106.5 251q25 70 24.5 87t-57.5 17l-148 -10q-43 0 -51 26zM520 682q0 10 78 207q80 197 92 235 q2 35 11.5 103.5t48.5 68.5q14 0 26 -45q14 -80 39 -239q41 -176 109 -176q61 0 202 221q143 221 148 221q24 0 24 -55q0 -14 -10 -61.5t-16 -84.5q-6 -147 -29 -346q-23 -35 -72 -35q-23 0 -22 19q0 31 68 354q-215 -276 -314 -276q-104 0 -182 276q-23 -49 -58.5 -184 t-60 -174t-53.5 -39t-29 10z" />
<glyph unicode="&#x25fc;" horiz-adv-x="849" d="M0 0v850h850v-850h-850z" />
<glyph unicode="&#xfb01;" horiz-adv-x="958" d="M-498 -258q6 25 19 25q6 0 8 -15q12 -53 41 -81.5t59 -28.5q174 0 318 215q82 123 223 442l111 266q-205 2 -205 49q0 20 19.5 35t33.5 15l193 -5q201 446 368 447q63 0 129 -62q17 -16 17 -43q0 -63 -37 -63q-10 0 -21 16q-18 33 -61 33q-94 0 -176 -135 q-16 -27 -103 -193h25q223 0 297 7q8 -2 8 -9q0 -16 -145 -45q-137 -23 -226 -39q-63 -131 -153 -311q-184 -344 -244 -428q-178 -254 -348 -254q-59 0 -103.5 50.5t-46.5 111.5zM465 113q0 111 121 306t194 197q20 0 46 -16t26 -33q-10 -14 -24.5 -31.5t-31 -38t-45 -58.5 t-55.5 -72q-154 -199 -153.5 -274t51.5 -75q43 0 117 48q172 106 272 233q37 47 50.5 47t13.5 -16.5t-47.5 -65.5t-75 -77.5t-37.5 -38t-38 -35t-42 -35.5t-41 -30.5t-47.5 -30t-46.5 -21.5q-44 -19 -103 -19q-104 0 -104 136zM862 778q0 57 78 58q31 0 58.5 -19.5 t27.5 -46.5t-25.5 -46t-56.5 -19t-56.5 22.5t-25.5 50.5z" />
<glyph unicode="&#xfb02;" horiz-adv-x="1026" d="M-498 -258q6 25 19 25q6 0 8 -15q12 -53 41 -81.5t59 -28.5q174 0 318 215q82 123 223 442l111 266q-205 2 -205 49q0 20 19.5 35t33.5 15l193 -5q201 446 368 447q63 0 129 -62q16 -16 17 -43q0 -63 -37 -63q-10 0 -21 16q-18 33 -61 33q-94 0 -176 -135 q-16 -27 -103 -193h25q217 0 272 5q221 356 320 356q20 0 41.5 -15.5t23.5 -33.5q-47 -63 -181 -243.5t-185.5 -259.5t-77 -118t-37.5 -60.5t-29 -56.5q-35 -70 -35 -131t68 -61t174.5 71.5t206.5 194.5q25 33 39 33t14 -12t-84 -107q-205 -225 -342 -225q-68 0 -115 31.5 t-47 98.5t35 155q59 139 191 350v2q-51 -14 -140.5 -28.5t-177.5 -31.5q-63 -131 -153 -311q-184 -344 -244 -428q-178 -254 -348 -254q-59 0 -103.5 50.5t-46.5 111.5z" />
</font>
</defs>
</svg>
